<?xml version="1.0" standalone="no"?>
<!DOCTYPE svg PUBLIC "-//W3C//DTD SVG 1.1//EN" "http://www.w3.org/Graphics/SVG/1.1/DTD/svg11.dtd" >
<svg xmlns="http://www.w3.org/2000/svg" xmlns:xlink="http://www.w3.org/1999/xlink" version="1.1">
<metadata>
Created by FontForge 20170731 at Wed Nov 18 00:08:22 1992
 By Aleksey,,,
Copyright 1990-1993 Bitstream Inc.  All rights reserved.
</metadata>
<defs>
<font id="Swiss911BT-ExtraCompressed" horiz-adv-x="778" >
  <font-face 
    font-family="Swiss911 XCm BT"
    font-weight="400"
    font-stretch="condensed"
    units-per-em="2048"
    panose-1="2 11 7 8 3 7 2 6 2 4"
    ascent="1638"
    descent="-410"
    x-height="1180"
    cap-height="1475"
    bbox="-260 -483 2048 1878"
    underline-thickness="180"
    underline-position="-458"
    unicode-range="U+0020-F002"
  />
<missing-glyph horiz-adv-x="1229" 
d="M102 -362v1806h1024v-1806h-1024zM217 -248h795v1577h-795v-1577z" />
    <glyph glyph-name=".notdef" horiz-adv-x="1229" 
d="M102 -362v1806h1024v-1806h-1024zM217 -248h795v1577h-795v-1577z" />
    <glyph glyph-name=".null" horiz-adv-x="0" 
 />
    <glyph glyph-name="nonmarkingreturn" horiz-adv-x="389" 
 />
    <glyph glyph-name="space" unicode=" " horiz-adv-x="389" 
 />
    <glyph glyph-name="exclam" unicode="!" horiz-adv-x="436" 
d="M84 0v305h268v-305h-268zM84 377v1098h268v-1098h-268z" />
    <glyph glyph-name="quotedbl" unicode="&#x22;" horiz-adv-x="678" 
d="M406 1438h192v-559h-192v559zM80 1438h192v-559h-192v559z" />
    <glyph glyph-name="numbersign" unicode="#" horiz-adv-x="1575" 
d="M709 848l-88 -244h251l86 244h-249zM709 1464h221l-146 -415h242l148 415h221l-148 -415h283l-74 -201h-280l-84 -242h290l-71 -200h-291l-148 -416h-221l148 416h-244l-149 -416h-220l146 416h-287l76 200h282l86 242h-299l74 201h297z" />
    <glyph glyph-name="dollar" unicode="$" 
d="M442 940v242q0 50 -11.5 68t-39.5 18q-32 0 -44.5 -23t-12.5 -96q0 -127 69 -199q10 -11 15 -16l170 -180q99 -106 124 -173.5t25 -170.5q0 -235 -65 -310.5t-236 -99.5v-221h-98v221q-167 21 -232 96.5t-65 270.5v194h293v-287q0 -49 11 -67.5t38 -18.5q33 0 45 24
t12 112v38q0 125 -70 199q-9 10 -14 14l-168 181q-2 2 -7 8q-140 149 -140 334q0 194 65 272t232 100v170h98v-170q168 -19 232.5 -88t64.5 -272v-170h-291z" />
    <glyph glyph-name="percent" unicode="%" horiz-adv-x="1128" 
d="M774 1507h117l-541 -1540h-117zM307 895v403q0 37 -9.5 52.5t-31.5 15.5q-21 0 -31 -15.5t-10 -52.5v-403q0 -36 10 -52t31 -16q22 0 31.5 16t9.5 52zM49 1249q0 136 52 196t165 60q114 0 165.5 -60t51.5 -196v-305q0 -135 -51.5 -195.5t-165.5 -60.5q-113 0 -165 60.5
t-52 195.5v305zM643 528q0 135 51.5 194.5t165.5 59.5t165.5 -59.5t51.5 -194.5v-305q0 -135 -51.5 -195.5t-165.5 -60.5q-113 0 -165 60.5t-52 195.5v305zM901 172v406q0 36 -9.5 51.5t-31.5 15.5q-21 0 -31 -15.5t-10 -51.5v-406q0 -36 10 -52t31 -16q22 0 31.5 16t9.5 52
z" />
    <glyph glyph-name="ampersand" unicode="&#x26;" horiz-adv-x="862" 
d="M362 975q41 22 53.5 40t12.5 54v160q0 41 -11 56t-38 15q-25 0 -36 -16.5t-11 -60.5v-158q0 -28 7 -48t23 -42zM303 625v-287q0 -67 30 -105t83 -38q28 0 54 11t48 34zM23 344v279q0 91 30 144.5t107 100.5q-52 77 -70 126t-18 114v133q0 129 82.5 197.5t236.5 68.5
q134 0 215.5 -66.5t81.5 -174.5v-156q0 -89 -48.5 -152.5t-182.5 -140.5q30 -47 108 -197q8 -16 13 -24q-4 17 -5.5 34t-1.5 42v18v121h238v-440q0 -34 -7 -62.5t-22 -56.5q16 -15 31.5 -21t36.5 -6q4 0 11 1t11 1v-227h-137q-21 0 -41.5 12.5t-40.5 38.5
q-53 -45 -113.5 -64.5t-156.5 -19.5q-181 0 -269.5 93.5t-88.5 283.5z" />
    <glyph glyph-name="quotesingle" unicode="'" horiz-adv-x="352" 
d="M80 1438h192v-559h-192v559z" />
    <glyph glyph-name="parenleft" unicode="(" horiz-adv-x="598" 
d="M578 1475q-112 -196 -168 -409t-56 -439q0 -228 56 -441t168 -409h-234q-126 224 -186 431t-60 419q0 208 60.5 415t187.5 433h232z" />
    <glyph glyph-name="parenright" unicode=")" horiz-adv-x="598" 
d="M20 -223q111 196 167.5 409.5t56.5 440.5t-56 439t-168 409h234q127 -225 186.5 -431t59.5 -417q0 -209 -60.5 -417t-187.5 -433h-232z" />
    <glyph glyph-name="asterisk" unicode="*" horiz-adv-x="807" 
d="M141 930l129 174l-198 61l53 164l197 -65v211h165v-211l195 63l53 -162l-200 -63l122 -166l-135 -102l-125 170l-116 -173z" />
    <glyph glyph-name="plus" unicode="+" horiz-adv-x="1706" 
d="M752 1221h202v-510h498v-199h-498v-512h-202v512h-498v199h498v510z" />
    <glyph glyph-name="comma" unicode="," horiz-adv-x="389" 
d="M6 -264l80 563h274l-172 -563h-182z" />
    <glyph glyph-name="hyphen" unicode="-" horiz-adv-x="483" 
d="M59 489v201h365v-201h-365z" />
    <glyph glyph-name="period" unicode="." horiz-adv-x="389" 
d="M59 0v301h271v-301h-271z" />
    <glyph glyph-name="slash" unicode="/" horiz-adv-x="569" 
d="M197 -190h-152l324 1697h151z" />
    <glyph glyph-name="zero" unicode="0" 
d="M45 1126q0 206 80 293.5t264 87.5q185 0 264.5 -86.5t79.5 -294.5v-778q0 -207 -79.5 -294t-264.5 -87t-264.5 87t-79.5 294v778zM338 1225v-963q0 -38 12 -55t39 -17t38 16.5t11 55.5v963q0 40 -11 55.5t-38 15.5q-26 0 -38.5 -17.5t-12.5 -53.5z" />
    <glyph glyph-name="one" unicode="1" 
d="M266 0v1128h-162v179h7q85 0 142.5 44.5t74.5 123.5h231v-1475h-293z" />
    <glyph glyph-name="two" unicode="2" 
d="M432 1225q0 38 -12 55.5t-37 17.5q-27 0 -38 -16t-11 -57v-269h-291v170q0 208 79.5 294.5t264.5 86.5q173 0 258.5 -84.5t85.5 -255.5q0 -200 -212 -523q-41 -64 -62 -97q-75 -118 -102 -185.5t-27 -123.5q0 -5 1 -13t1 -12h403v-213h-692v244q0 90 32 179t130 241
q22 34 63 96q166 253 166 350v115z" />
    <glyph glyph-name="three" unicode="3" 
d="M45 580h293v-318q0 -38 12 -55t39 -17q26 0 37.5 16.5t11.5 55.5v277q0 50 -26.5 83t-65.5 33h-102v213h102q44 0 68 31t24 86v240q0 37 -11.5 54t-37.5 17q-27 0 -39 -16t-12 -55v-273h-293v174q0 209 79 295t263 86q170 0 257 -77t87 -228v-170q0 -107 -54 -172.5
t-165 -93.5q112 -14 165.5 -72.5t53.5 -167.5v-258q0 -145 -89 -223t-255 -78q-183 0 -262.5 87t-79.5 294v232z" />
    <glyph glyph-name="four" unicode="4" 
d="M387 0v365h-387v210l281 900h399v-900h90v-210h-90v-365h-293zM225 575h172l2 443q0 29 5 104t14 168h-19q-21 -120 -63 -293.5t-111 -421.5z" />
    <glyph glyph-name="five" unicode="5" 
d="M731 782v-514q0 -145 -89 -223t-255 -78q-183 0 -262.5 86.5t-79.5 292.5v229h293v-313q0 -38 12 -55t39 -17q26 0 37.5 16.5t11.5 55.5v465q0 35 -12 51.5t-37 16.5q-26 0 -38.5 -15.5t-12.5 -46.5h-293v742h680v-201h-401v-301q41 38 84.5 54.5t103.5 16.5
q107 0 163 -66.5t56 -195.5z" />
    <glyph glyph-name="six" unicode="6" 
d="M338 555v-293q0 -38 12 -55t39 -17t38 16.5t11 55.5v293q0 40 -11 56t-38 16t-39 -17t-12 -55zM733 348q0 -207 -79.5 -294t-264.5 -87t-264.5 87t-79.5 294v778q0 207 80 294t264 87q162 0 253 -75t91 -209v-271h-295v273q0 38 -11.5 54.5t-37.5 16.5q-27 0 -39 -16.5
t-12 -54.5v-398q38 30 77.5 44t82.5 14q114 0 174.5 -66t60.5 -190v-281z" />
    <glyph glyph-name="seven" unicode="7" 
d="M80 0l377 1270h-439v205h738v-195l-369 -1280h-307z" />
    <glyph glyph-name="eight" unicode="8" 
d="M438 965v252q0 38 -11.5 54.5t-37.5 16.5q-27 0 -39 -16.5t-12 -54.5v-252q0 -39 12 -55.5t39 -16.5q26 0 37.5 16.5t11.5 55.5zM338 582v-324q0 -38 12 -55t39 -17t38 16.5t11 55.5v324q0 39 -11 55t-38 16t-39 -16.5t-12 -54.5zM733 319q0 -182 -83 -267t-261 -85
q-180 0 -262 84t-82 268v187q0 122 40.5 179t141.5 91q-96 32 -139 93t-43 165v166q0 149 89 228t255 79q167 0 255.5 -79t88.5 -228v-166q0 -104 -44.5 -166.5t-139.5 -91.5q102 -28 143 -87.5t41 -182.5v-187z" />
    <glyph glyph-name="nine" unicode="9" 
d="M438 842v370q0 39 -11.5 55.5t-37.5 16.5q-27 0 -39 -16.5t-12 -55.5v-370q0 -39 12 -55.5t39 -16.5q26 0 37.5 16.5t11.5 55.5zM338 262q0 -38 12 -55t39 -17t38 16.5t11 55.5v311q-37 -28 -75 -41.5t-82 -13.5q-114 0 -175 66t-61 190v352q0 207 79.5 294t264.5 87
q184 0 263 -86.5t79 -294.5v-778q0 -207 -79.5 -294t-262.5 -87q-162 0 -253 75.5t-91 209.5v190h293v-180z" />
    <glyph glyph-name="colon" unicode=":" horiz-adv-x="412" 
d="M72 879v301h270v-301h-270zM72 0v301h270v-301h-270z" />
    <glyph glyph-name="semicolon" unicode=";" horiz-adv-x="412" 
d="M14 -264l80 561h275l-174 -561h-181zM80 879v301h272v-301h-272z" />
    <glyph glyph-name="less" unicode="&#x3c;" horiz-adv-x="1706" 
d="M1442 1194v-219l-893 -365l893 -364v-219l-1178 485v199z" />
    <glyph glyph-name="equal" unicode="=" horiz-adv-x="1706" 
d="M254 496h1198v-199h-1198v199zM254 926h1198v-199h-1198v199z" />
    <glyph glyph-name="greater" unicode="&#x3e;" horiz-adv-x="1706" 
d="M264 1194l1178 -483v-199l-1178 -485v219l895 364l-895 365v219z" />
    <glyph glyph-name="question" unicode="?" horiz-adv-x="768" 
d="M244 0v303h268v-303h-268zM244 371v311q0 107 80 206l30 39l2 3q72 95 72 157v146q0 42 -11 58t-38 16q-25 0 -35 -16t-10 -56v-289h-271v266q0 143 89 219t254 76q141 0 220 -74.5t79 -209.5v-144q0 -55 -11 -96.5t-35 -75.5l-98 -145q-5 -8 -15 -21q-34 -44 -34 -102
v-268h-268z" />
    <glyph glyph-name="at" unicode="@" horiz-adv-x="2048" 
d="M1167 272q-55 -84 -127 -123.5t-170 -39.5q-158 0 -240.5 86t-82.5 254q0 239 139.5 401t343.5 162q80 0 139 -33t97 -98l53 98h178l-147 -598q-3 -11 -5 -22.5t-2 -18.5q0 -35 24 -52.5t71 -17.5q39 0 81.5 20t79.5 56q86 80 130.5 187t44.5 235q0 240 -185.5 394.5
t-478.5 154.5q-141 0 -262.5 -34t-220.5 -101q-170 -114 -261.5 -285t-91.5 -375q0 -307 207 -490.5t553 -183.5q162 0 316.5 49t287.5 142l82 -117q-153 -115 -324.5 -173t-357.5 -58q-192 0 -353 48.5t-286 143.5q-155 121 -232 279t-77 358q0 167 52.5 318.5t154.5 275.5
q148 181 356 274t463 93q169 0 317.5 -45.5t258.5 -128.5q135 -105 201.5 -239.5t66.5 -303.5q0 -165 -65.5 -304.5t-188.5 -238.5q-70 -56 -152.5 -85.5t-171.5 -29.5q-106 0 -159.5 42t-55.5 124zM1217 700q-13 81 -57.5 123.5t-117.5 42.5q-114 0 -198 -124t-84 -298
q0 -92 40.5 -140t117.5 -48q83 0 151.5 63t93.5 164z" />
    <glyph glyph-name="A" unicode="A" horiz-adv-x="811" 
d="M12 0l236 1475h377l174 -1475h-305l-29 393h-146l-38 -393h-269zM342 610h109l-33 450q-3 38 -5 137q-1 43 -1 67h-11q-4 -85 -7 -135.5t-5 -66.5z" />
    <glyph glyph-name="B" unicode="B" horiz-adv-x="770" 
d="M440 291v309q0 45 -18.5 63.5t-63.5 18.5h-16v-473h16q45 0 63.5 18.5t18.5 63.5zM440 969v235q0 50 -18.5 67t-79.5 17v-405q60 0 79 17.5t19 68.5zM47 0v1475h344q173 0 257.5 -62.5t84.5 -189.5v-174q0 -119 -50 -175t-177 -81v-8q115 -10 171 -68.5t56 -169.5v-228
q0 -174 -82 -246.5t-280 -72.5h-324z" />
    <glyph glyph-name="C" unicode="C" horiz-adv-x="758" 
d="M41 1126q0 207 79.5 294t262.5 87q184 0 264 -86.5t80 -294.5v-163h-293v262q0 39 -11.5 55t-39.5 16q-27 0 -38 -16t-11 -55v-963q0 -39 11.5 -55.5t37.5 -16.5q28 0 39.5 17t11.5 55v297h293v-213q0 -206 -79.5 -292.5t-264.5 -86.5q-184 0 -263 85.5t-79 293.5v780z
" />
    <glyph glyph-name="D" unicode="D" horiz-adv-x="776" 
d="M340 1276v-1067h16q46 0 65 19t19 63v899q0 51 -19.5 68.5t-80.5 17.5zM47 0v1475h344q188 0 266 -81.5t78 -281.5v-747q0 -199 -84 -282t-280 -83h-324z" />
    <glyph glyph-name="E" unicode="E" horiz-adv-x="629" 
d="M47 0v1475h549v-205h-254v-340h248v-213h-248v-494h254v-223h-549z" />
    <glyph glyph-name="F" unicode="F" horiz-adv-x="627" 
d="M51 0v1475h549v-205h-254v-340h248v-213h-248v-717h-295z" />
    <glyph glyph-name="G" unicode="G" horiz-adv-x="764" 
d="M39 1126q0 207 79.5 294t264.5 87q173 0 258.5 -80.5t85.5 -242.5v-221h-293v262q0 39 -11.5 55t-39.5 16q-26 0 -37.5 -17t-11.5 -54v-963q0 -39 11.5 -55.5t37.5 -16.5q28 0 39.5 17t11.5 55v260h-74v228h367v-750h-145l-19 92q-51 -65 -113 -97t-137 -32
q-137 0 -205.5 96t-68.5 289v778z" />
    <glyph glyph-name="H" unicode="H" horiz-adv-x="774" 
d="M47 0v1475h293v-547h92v547h295v-1475h-295v713h-92v-713h-293z" />
    <glyph glyph-name="I" unicode="I" horiz-adv-x="387" 
d="M45 0v1475h295v-1475h-295z" />
    <glyph glyph-name="J" unicode="J" horiz-adv-x="770" 
d="M430 1475h293v-1129q0 -206 -79.5 -292.5t-264.5 -86.5t-264.5 86.5t-79.5 292.5v213h295v-297q0 -39 11 -55.5t38 -16.5t39 17t12 55v1213z" />
    <glyph glyph-name="K" unicode="K" horiz-adv-x="758" 
d="M47 0v1475h295v-650h4l146 650h282l-182 -611l184 -864h-293l-137 760h-4v-760h-295z" />
    <glyph glyph-name="L" unicode="L" horiz-adv-x="627" 
d="M47 0v1475h295v-1252h254v-223h-549z" />
    <glyph glyph-name="M" unicode="M" horiz-adv-x="1198" 
d="M47 0v1475h422l96 -770q12 -90 23 -247q1 -13 2 -20l10 1q5 70 12.5 137.5t20.5 148.5l115 750h403v-1475h-268v780q0 61 1.5 140.5t4.5 178.5l-8 1q-6 -130 -28 -252q-1 -5 -1 -6l-143 -842h-250l-137 800q-7 40 -14.5 117.5t-14.5 181.5l-10 1v-34q2 -463 2 -1066h-238
z" />
    <glyph glyph-name="N" unicode="N" horiz-adv-x="868" 
d="M45 0v1475h404l104 -625q14 -84 24 -188t17 -238h12q-7 156 -10.5 272.5t-3.5 167.5l-2 611h231v-1475h-346l-151 801q-9 47 -22.5 142t-27.5 208h-8q6 -92 9.5 -161t3.5 -113v-877h-234z" />
    <glyph glyph-name="O" unicode="O" horiz-adv-x="768" 
d="M39 1126q0 206 80 293.5t264 87.5t264 -86.5t80 -294.5v-778q0 -207 -79.5 -294t-264.5 -87t-264.5 87t-79.5 294v778zM334 1225v-963q0 -39 11.5 -55.5t37.5 -16.5q28 0 39.5 17t11.5 55v963q0 39 -11.5 55t-39.5 16q-26 0 -37.5 -17t-11.5 -54z" />
    <glyph glyph-name="P" unicode="P" horiz-adv-x="758" 
d="M440 862v342q0 50 -17.5 67t-68.5 17h-12v-508h18q46 0 63 18t17 64zM47 0v1475h344q177 0 259.5 -64.5t82.5 -202.5v-315q0 -172 -81.5 -245t-274.5 -73h-35v-575h-295z" />
    <glyph glyph-name="Q" unicode="Q" horiz-adv-x="768" 
d="M334 1225v-963q0 -39 11.5 -55.5t37.5 -16.5q28 0 39.5 17t11.5 55v963q0 39 -11.5 55t-39.5 16q-26 0 -37.5 -17t-11.5 -54zM39 1126q0 206 80 293.5t264 87.5t264 -86.5t80 -294.5v-780q0 -151 -38 -227.5t-130 -118.5q0 -24 10.5 -34.5t32.5 -10.5h119v-215h-182
q-57 0 -88 56t-31 161v10q-17 -1 -31 -1.5t-27 -0.5q-167 0 -245 91t-78 290v780z" />
    <glyph glyph-name="R" unicode="R" horiz-adv-x="764" 
d="M440 969v235q0 50 -19.5 67t-78.5 17v-403h16q46 0 64 18.5t18 65.5zM47 0v1475h344q180 0 261 -63.5t81 -203.5v-155q0 -116 -57 -178t-170 -68v-8q126 -8 176.5 -62.5t50.5 -185.5v-375q0 -45 7 -90.5t20 -85.5h-291q-14 38 -21.5 84.5t-7.5 99.5v54v321
q0 62 -23.5 93.5t-70.5 31.5h-4v-684h-295z" />
    <glyph glyph-name="S" unicode="S" horiz-adv-x="754" 
d="M33 1210q0 141 90.5 219t253.5 78q164 0 253 -78.5t89 -224.5v-241h-293v262q0 40 -11 55.5t-38 15.5q-28 0 -39.5 -16.5t-11.5 -54.5v-131q0 -33 8.5 -57.5t27.5 -47.5l283 -311q40 -43 57 -91t17 -153v-172q0 -142 -89.5 -218.5t-254.5 -76.5q-169 0 -255.5 80
t-86.5 236v276h293v-297q0 -38 11.5 -55t39.5 -17q26 0 37.5 16.5t11.5 55.5v156q0 32 -11.5 59.5t-39.5 59.5l-266 301q-41 46 -58.5 92.5t-17.5 124.5v22v133z" />
    <glyph glyph-name="T" unicode="T" horiz-adv-x="688" 
d="M197 0v1266h-189v209h672v-209h-191v-1266h-292z" />
    <glyph glyph-name="U" unicode="U" 
d="M733 1475v-1129q0 -206 -79.5 -292.5t-264.5 -86.5t-264.5 86.5t-79.5 292.5v1129h293v-1213q0 -38 12 -55t39 -17t38 16.5t11 55.5v1213h295z" />
    <glyph glyph-name="V" unicode="V" horiz-adv-x="784" 
d="M178 0l-164 1475h303l58 -927q3 -39 7 -105t8 -142h7q6 85 12.5 161.5t14.5 149.5l86 863h262l-203 -1475h-391z" />
    <glyph glyph-name="W" unicode="W" horiz-adv-x="1239" 
d="M170 0l-147 1475h296l35 -563q5 -74 8.5 -162.5t8.5 -255.5h10q7 99 14.5 185.5t14.5 145.5l77 650h312l61 -696q1 -17 9 -114.5t14 -170.5h10q4 122 9.5 226t12.5 201l46 554h247l-159 -1475h-340l-74 791q-4 42 -7.5 97.5t-6.5 143.5h-11l-104 -1032h-336z" />
    <glyph glyph-name="X" unicode="X" horiz-adv-x="774" 
d="M-12 0l176 762l-156 713h303l60 -334q7 -45 13.5 -93t10.5 -97l10 -1q8 59 15.5 110.5t13.5 86.5l70 328h264l-166 -668l172 -807h-311l-72 461q-10 68 -13.5 102.5t-4.5 64.5l-8 1q-6 -71 -23 -158q-1 -8 -2 -12l-78 -459h-274z" />
    <glyph glyph-name="Y" unicode="Y" horiz-adv-x="729" 
d="M217 0v559l-223 916h303l53 -336q10 -62 16 -120.5t9 -117.5h12q9 78 16.5 137t14.5 99l59 338h262l-229 -916v-559h-293z" />
    <glyph glyph-name="Z" unicode="Z" horiz-adv-x="643" 
d="M31 0v227l274 1035h-274v213h577v-175l-289 -1077h291v-223h-579z" />
    <glyph glyph-name="bracketleft" unicode="[" horiz-adv-x="592" 
d="M113 -225v1700h452v-191h-203v-1323h203v-186h-452z" />
    <glyph glyph-name="backslash" unicode="\" horiz-adv-x="569" 
d="M369 -190l-324 1697h152l323 -1697h-151z" />
    <glyph glyph-name="bracketright" unicode="]" horiz-adv-x="592" 
d="M477 1475v-1700h-450v188h202v1325h-202v187h450z" />
    <glyph glyph-name="asciicircum" unicode="^" horiz-adv-x="2048" 
d="M897 1460h252l481 -561h-235l-371 371l-373 -371h-235z" />
    <glyph glyph-name="underscore" unicode="_" horiz-adv-x="1024" 
d="M0 -279h1024v-204h-1024v204z" />
    <glyph glyph-name="grave" unicode="`" horiz-adv-x="1024" 
d="M467 1251l-188 224h251l99 -224h-162z" />
    <glyph glyph-name="a" unicode="a" horiz-adv-x="694" 
d="M395 266v313q-6 -4 -16 -12q-78 -60 -78 -106v-195q0 -40 10.5 -54.5t36.5 -14.5q24 0 35.5 16.5t11.5 52.5zM39 938q0 134 77.5 202t229.5 68q166 0 236.5 -75.5t70.5 -260.5v-718q0 -47 4.5 -83.5t14.5 -70.5h-264q-5 21 -8 42.5t-3 39.5v18h-4q-28 -58 -75.5 -89
t-110.5 -31q-83 0 -125.5 50t-42.5 148v250q0 93 33.5 151.5t107.5 98.5q24 13 68 35q147 75 147 143v84q0 38 -11.5 55t-37.5 17q-24 0 -34.5 -17t-10.5 -55v-172h-262v170z" />
    <glyph glyph-name="b" unicode="b" horiz-adv-x="696" 
d="M397 258v657q0 41 -10.5 55.5t-36.5 14.5q-24 0 -35.5 -17t-11.5 -53v-657q0 -36 11.5 -54t35.5 -18q26 0 36.5 15.5t10.5 56.5zM43 0v1475h260v-394h4q30 61 75 91t107 30q85 0 127.5 -50.5t42.5 -150.5v-831q0 -99 -42 -149t-128 -50q-66 0 -113 33t-73 98h-4v-102
h-256z" />
    <glyph glyph-name="c" unicode="c" horiz-adv-x="684" 
d="M39 307v565q0 186 70 261t235 75q145 0 227 -67.5t82 -186.5v-186h-260v184q0 39 -11 55.5t-36 16.5t-36 -16.5t-11 -55.5v-714q0 -39 11 -55.5t36 -16.5t36 16.5t11 55.5v221h260v-219q0 -128 -80.5 -198.5t-226.5 -70.5q-165 0 -236 76t-71 260z" />
    <glyph glyph-name="d" unicode="d" horiz-adv-x="696" 
d="M653 0h-256v102h-4q-26 -65 -72.5 -98t-113.5 -33q-85 0 -126.5 49.5t-41.5 149.5v831q0 101 42 151t126 50q62 0 107 -30t75 -91h4v394h260v-1475zM299 258q0 -41 10.5 -56.5t36.5 -15.5q24 0 35.5 18t11.5 54v657q0 36 -11.5 53t-35.5 17q-26 0 -36.5 -14.5
t-10.5 -55.5v-657z" />
    <glyph glyph-name="e" unicode="e" horiz-adv-x="692" 
d="M299 952v-223h94v223q0 39 -11 55.5t-36 16.5t-36 -16.5t-11 -55.5zM299 238q0 -39 11 -55.5t36 -16.5t36 16.5t11 55.5v221h260v-219q0 -128 -80.5 -198.5t-226.5 -70.5q-165 0 -236 76t-71 260v565q0 186 70 261t235 75q145 0 227 -67.5t82 -186.5v-401h-354v-315z" />
    <glyph glyph-name="f" unicode="f" horiz-adv-x="432" 
d="M84 0v993h-64v187h64v112q0 86 52 134.5t145 48.5h147v-185q-46 0 -65 -10.5t-19 -36.5v-63h84v-187h-84v-993h-260z" />
    <glyph glyph-name="g" unicode="g" horiz-adv-x="694" 
d="M299 412q0 -41 10.5 -56.5t36.5 -15.5q24 0 35.5 17.5t11.5 54.5v512q0 36 -11.5 52.5t-35.5 16.5q-26 0 -36.5 -14.5t-10.5 -54.5v-512zM393 260h-4q-28 -66 -73.5 -98.5t-110.5 -32.5q-86 0 -126 47.5t-40 151.5v690q0 89 43 136.5t125 47.5q62 0 107 -29t79 -92h6v99
h254v-1110q0 -185 -71 -260.5t-236 -75.5q-146 0 -226.5 70.5t-80.5 197.5v90h260v-92q0 -39 11 -55.5t36 -16.5t36 17t11 55v260z" />
    <glyph glyph-name="h" unicode="h" horiz-adv-x="698" 
d="M43 0v1475h260v-394h4q29 62 74 91.5t108 29.5q85 0 127.5 -50.5t42.5 -150.5v-1001h-262v915q0 41 -10.5 55.5t-36.5 14.5q-24 0 -35.5 -17t-11.5 -53v-915h-260z" />
    <glyph glyph-name="i" unicode="i" horiz-adv-x="346" 
d="M43 0v1180h260v-1180h-260zM43 1251v224h260v-224h-260z" />
    <glyph glyph-name="j" unicode="j" horiz-adv-x="348" 
d="M47 1251v224h260v-224h-260zM47 -12v1192h260v-1266q0 -94 -44.5 -137t-141.5 -43h-187v184h21q58 0 75 12.5t17 57.5z" />
    <glyph glyph-name="k" unicode="k" horiz-adv-x="676" 
d="M43 0v1475h260v-809h4l111 514h266l-129 -510l129 -670h-274l-103 618h-4v-618h-260z" />
    <glyph glyph-name="l" unicode="l" horiz-adv-x="346" 
d="M43 0v1475h260v-1475h-260z" />
    <glyph glyph-name="m" unicode="m" horiz-adv-x="1044" 
d="M43 0v1180h254v-99h4q31 61 77.5 91t108.5 30q59 0 99 -30.5t59 -90.5h4q35 61 81.5 91t107.5 30q86 0 127 -49t41 -152v-1001h-261v915q0 41 -10.5 55.5t-36.5 14.5q-24 0 -35.5 -17t-11.5 -53v-915h-256v915q0 41 -10.5 55.5t-36.5 14.5q-24 0 -35.5 -17t-11.5 -53
v-915h-258z" />
    <glyph glyph-name="n" unicode="n" horiz-adv-x="698" 
d="M43 0v1180h256v-99h4q33 62 79 91.5t107 29.5q85 0 127.5 -50.5t42.5 -150.5v-1001h-262v915q0 41 -10.5 55.5t-36.5 14.5q-24 0 -35.5 -17t-11.5 -53v-915h-260z" />
    <glyph glyph-name="o" unicode="o" horiz-adv-x="692" 
d="M301 952v-714q0 -39 11 -55.5t36 -16.5t36 16.5t11 55.5v714q0 38 -11.5 55t-37.5 17q-24 0 -34.5 -16t-10.5 -56zM39 872q0 183 71.5 259.5t235.5 76.5t235.5 -76.5t71.5 -259.5v-565q0 -182 -71.5 -259t-235.5 -77t-235.5 77t-71.5 259v565z" />
    <glyph glyph-name="p" unicode="p" horiz-adv-x="696" 
d="M303 915v-655q0 -36 11.5 -53t35.5 -17q26 0 36.5 15t10.5 55v655q0 41 -10.5 55.5t-36.5 14.5q-24 0 -35.5 -17t-11.5 -53zM43 -266v1446h256v-99h4q33 62 79 91.5t107 29.5q85 0 127.5 -50.5t42.5 -150.5v-825q0 -100 -42.5 -150.5t-127.5 -50.5q-60 0 -105.5 28.5
t-76.5 84.5h-4v-354h-260z" />
    <glyph glyph-name="q" unicode="q" horiz-adv-x="696" 
d="M395 915q0 36 -11.5 53t-35.5 17q-26 0 -36.5 -14.5t-10.5 -55.5v-655q0 -40 10.5 -55t36.5 -15q24 0 35.5 17t11.5 53v655zM657 -266h-262v354h-4q-30 -57 -75 -85t-105 -28q-85 0 -127.5 50.5t-42.5 150.5v825q0 100 42.5 150.5t127.5 50.5q61 0 106 -29.5t78 -91.5h6
v99h256v-1446z" />
    <glyph glyph-name="r" unicode="r" horiz-adv-x="678" 
d="M43 0v1180h256v-99h4q33 62 79 91.5t107 29.5q85 0 127.5 -50.5t42.5 -150.5v-456h-262v370q0 41 -10.5 55.5t-36.5 14.5q-24 0 -35.5 -17t-11.5 -53v-915h-260z" />
    <glyph glyph-name="s" unicode="s" horiz-adv-x="682" 
d="M651 244q0 -132 -79 -202.5t-228 -70.5q-146 0 -227.5 71t-81.5 198v219h262v-221q0 -39 11 -55.5t36 -16.5t36 16.5t11 55.5v106q0 72 -130 176q-28 22 -44 35l-2 2q-180 149 -180 299v105q0 117 81 182t226 65q147 0 228 -68t81 -192v-180h-260v184q0 39 -11 55.5
t-36 16.5t-36 -16.5t-11 -55.5v-63q0 -80 125 -176q29 -22 45 -35q123 -99 153.5 -154.5t30.5 -144.5v-135z" />
    <glyph glyph-name="t" unicode="t" horiz-adv-x="408" 
d="M2 991v189h66v219h262v-219h76v-189h-76v-717q0 -55 13.5 -69.5t53.5 -14.5h9v-190h-164q-95 0 -134.5 43.5t-39.5 163.5v784h-66z" />
    <glyph glyph-name="u" unicode="u" horiz-adv-x="698" 
d="M659 1180v-1180h-256v98h-6q-33 -61 -77.5 -89.5t-106.5 -28.5q-85 0 -127.5 49.5t-42.5 148.5v1002h260v-916q0 -39 11.5 -54t37.5 -15q24 0 34.5 16t10.5 53v916h262z" />
    <glyph glyph-name="v" unicode="v" horiz-adv-x="625" 
d="M154 0l-170 1180h262l57 -584q7 -66 11 -144.5t6 -168.5h8q2 97 7.5 186.5t12.5 164.5l53 546h246l-170 -1180h-323z" />
    <glyph glyph-name="w" unicode="w" horiz-adv-x="1057" 
d="M145 0l-161 1180h264l49 -611q4 -58 6 -128t2 -148h10q4 147 21 291q1 11 2 16l65 580h273l53 -611q1 -9 4.5 -100t7.5 -176h11q6 131 19 270q3 28 3 35l53 582h252l-176 -1180h-301l-49 541q-2 25 -5 100t-6 172h-10q-5 -131 -20 -250v-4l-70 -559h-297z" />
    <glyph glyph-name="x" unicode="x" horiz-adv-x="659" 
d="M-25 0l162 621l-131 559h275l45 -271q6 -36 10.5 -79t5.5 -88l8 -1q6 87 24 181q0 3 1 6l49 252h242l-134 -566l134 -614h-275l-53 295q-6 34 -9.5 80.5t-5.5 101.5h-7q-4 -57 -10 -107.5t-11 -74.5l-59 -295h-261z" />
    <glyph glyph-name="y" unicode="y" horiz-adv-x="627" 
d="M467 -8q-23 -151 -74.5 -204.5t-167.5 -53.5h-221v190h111q26 0 37.5 8.5t11.5 28.5q0 7 -2 24t-8 64l-172 1131h268l45 -593q3 -42 6 -115t7 -177h7q5 66 11.5 138.5t17.5 178.5l59 568h244z" />
    <glyph glyph-name="z" unicode="z" horiz-adv-x="522" 
d="M16 0v205l215 780h-208v195h489v-170l-225 -811h225v-199h-496z" />
    <glyph glyph-name="braceleft" unicode="{" horiz-adv-x="1024" 
d="M883 1477v-209q-9 0 -25 1t-22 1q-101 0 -136.5 -38.5t-35.5 -162.5v-240q0 -148 -45 -210t-162 -89q117 -27 162 -88t45 -209v-241q0 -123 35 -161t137 -38q6 0 22 1t25 1v-209q-14 0 -39 -1t-37 -1q-100 0 -167 12t-114 37q-57 34 -80.5 91.5t-23.5 199.5v252
q0 137 -51 194.5t-172 57.5q-6 0 -20 -1t-21 -1v209q7 0 21 -1t20 -1q120 0 171.5 58t51.5 196v250q0 143 23.5 201t80.5 92q47 25 114 37t167 12q12 0 37 -1t39 -1z" />
    <glyph glyph-name="bar" unicode="|" horiz-adv-x="1024" 
d="M410 1565h206v-2048h-206v2048z" />
    <glyph glyph-name="braceright" unicode="}" horiz-adv-x="1024" 
d="M143 1477h68q110 0 177 -12t112 -38q57 -32 80.5 -91.5t23.5 -198.5v-252q0 -137 51 -194.5t172 -57.5q6 0 20 1t21 1v-209h-37q-125 0 -176 -56t-51 -194v-252q0 -143 -23.5 -201t-80.5 -90q-47 -25 -114 -37t-167 -12q-12 0 -37 1t-39 1v209q9 0 25 -1t22 -1
q101 0 136.5 38.5t35.5 160.5v239q0 150 45 211.5t162 87.5q-117 27 -162 89t-45 210v242q0 122 -35.5 160.5t-136.5 38.5q-6 0 -22 -1t-25 -1v209z" />
    <glyph glyph-name="asciitilde" unicode="~" horiz-adv-x="1706" 
d="M1530 803v-221q-104 -71 -196.5 -104.5t-182.5 -33.5q-46 0 -92 8t-92 23q-24 8 -71 25q-219 75 -333 75q-85 0 -177.5 -37.5t-207.5 -119.5v221q107 72 204 107.5t183 35.5q117 0 291 -58q3 -1 4 -1q18 -6 55 -19q155 -55 240 -55t175 37t200 117z" />
    <glyph glyph-name="nonbreakingspace" unicode="&#xa0;" 
 />
    <glyph glyph-name="exclamdown" unicode="&#xa1;" horiz-adv-x="436" 
d="M350 1475v-306h-266v306h266zM350 1098v-1098h-266v1098h266z" />
    <glyph glyph-name="cent" unicode="&#xa2;" 
d="M80 332v553q0 176 58 247t204 87v196h94v-196q126 -11 193 -76t67 -176v-183h-260v181q0 38 -11 54.5t-36 16.5t-36 -16.5t-11 -54.5v-713q0 -39 11 -56.5t36 -17.5t36 17.5t11 56.5v229h260v-217q0 -117 -67 -185t-193 -79v-213h-94v213q-147 17 -204.5 87t-57.5 245z
" />
    <glyph glyph-name="sterling" unicode="&#xa3;" 
d="M41 0v217q59 38 87 98.5t28 151.5q0 27 -3.5 62t-11.5 89h-100v158h74q-36 176 -47 259t-11 151q0 157 87.5 239t252.5 82q169 0 253.5 -79.5t84.5 -237.5v-248h-289v268q0 52 -10.5 69t-38.5 17q-30 0 -41.5 -21.5t-11.5 -96.5q0 -108 29 -240t30 -162h332v-158h-313
q3 -33 4.5 -60t1.5 -46q0 -113 -45 -187t-135 -108v-16q46 8 88.5 12t83.5 4h315v-217h-694z" />
    <glyph glyph-name="currency" unicode="&#xa4;" horiz-adv-x="1241" 
d="M623 1161q-113 0 -195 -82t-82 -194q0 -114 81 -194.5t196 -80.5q113 0 194.5 80.5t81.5 194.5q0 112 -81.5 194t-194.5 82zM172 1438l205 -203q54 39 114 58.5t130 19.5t131.5 -19.5t115.5 -58.5l203 203l105 -107l-203 -205q38 -53 57 -113.5t19 -127.5t-19 -127
t-57 -115l203 -205l-105 -104l-203 203q-54 -40 -115 -59t-130 -19q-72 0 -132.5 19t-113.5 59l-205 -203l-104 104l202 205q-38 54 -56.5 113.5t-18.5 128.5q0 67 18.5 127.5t56.5 113.5l-202 205z" />
    <glyph glyph-name="yen" unicode="&#xa5;" 
d="M756 1475l-140 -555h142v-113h-170l-33 -133h203v-115h-232v-559h-284v559h-224v115h193l-31 133h-162v113h136l-136 555h295l52 -336q9 -65 16.5 -125.5t11.5 -112.5h17q11 77 22.5 155.5t11.5 80.5l60 338h252z" />
    <glyph glyph-name="brokenbar" unicode="&#xa6;" horiz-adv-x="1024" 
d="M410 408h206v-758h-206v758zM410 1432h206v-758h-206v758z" />
    <glyph glyph-name="section" unicode="&#xa7;" horiz-adv-x="807" 
d="M535 496v129q0 76 -20.5 103.5t-125.5 80.5l-117 57v-149q0 -62 24.5 -90.5t152.5 -89.5zM745 1014h-215v174q0 69 -31 99t-102 30q-64 0 -94.5 -28t-30.5 -87q0 -57 27 -89t135 -85l123 -59q113 -55 155 -113.5t42 -167.5q0 -136 -21 -184.5t-74 -73.5q53 -32 74 -75.5
t21 -131.5q0 -113 -14 -164.5t-48 -91.5q-48 -56 -121.5 -84t-171.5 -28q-90 0 -162 25.5t-114 72.5q-38 41 -54 95.5t-16 182.5v134h219v-185q0 -70 31 -100.5t100 -30.5q75 0 103.5 26.5t28.5 96.5q0 94 -157 169q-5 2 -7 3l-123 59q-115 56 -155 118.5t-40 207.5
q0 96 20 142t68 71q-48 40 -68 90t-20 144q0 167 88 249t265 82q93 0 163.5 -24.5t112.5 -71.5q34 -38 48.5 -82t14.5 -123v-67v-125z" />
    <glyph glyph-name="dieresis" unicode="&#xa8;" horiz-adv-x="1024" 
d="M555 1262v200h184v-200h-184zM285 1262v200h182v-200h-182z" />
    <glyph glyph-name="copyright" unicode="&#xa9;" horiz-adv-x="1706" 
d="M1212 897h-188q-8 70 -53 108.5t-119 38.5q-91 0 -143 -81.5t-52 -227.5q0 -147 52 -224t151 -77q73 0 117 42t53 119l193 1q-8 -139 -109 -223t-260 -84q-186 0 -293.5 118t-107.5 322q0 206 109.5 328.5t293.5 122.5q152 0 250.5 -78t105.5 -205zM854 1356
q-128 0 -239.5 -46t-198.5 -134q-89 -90 -136 -203.5t-47 -237.5q0 -125 47 -237t136 -201q88 -88 201 -135t237 -47t237.5 47t204.5 137q88 86 133.5 197t45.5 239q0 126 -46.5 238.5t-134.5 200.5q-89 89 -201 135.5t-239 46.5zM852 1479q152 0 287.5 -56t242.5 -163
q105 -105 160 -240.5t55 -286.5q0 -152 -54.5 -284t-160.5 -236q-111 -108 -248 -165.5t-282 -57.5q-147 0 -280.5 56.5t-241.5 164.5q-107 106 -163 240.5t-56 281.5q0 149 56 284.5t163 244.5q105 106 238 161.5t284 55.5z" />
    <glyph glyph-name="ordfeminine" unicode="&#xaa;" horiz-adv-x="520" 
d="M297 836l-1 218q-5 -4 -17 -12q-54 -39 -54 -69v-137q0 -29 8.5 -39.5t28.5 -10.5q18 0 26.5 12t8.5 38zM29 1307q0 93 58.5 140.5t172.5 47.5q124 0 176.5 -52.5t52.5 -182.5v-502q1 -31 4 -56t10 -53l-198 1q-3 13 -4.5 28t-1.5 29v12h-4q-20 -41 -56 -62.5t-83 -21.5
q-63 0 -95 35t-32 104v174q0 66 25 106.5t81 69.5q19 10 51 25q111 53 111 100v58q0 27 -8.5 39t-28.5 12q-18 0 -26.5 -12.5t-8.5 -38.5v-119h-196v119z" />
    <glyph glyph-name="guillemotleft" unicode="&#xab;" horiz-adv-x="748" 
d="M700 123l-294 328v262l294 329v-262l-182 -198l182 -199v-260zM342 123l-295 328v262l295 329v-262l-182 -198l182 -199v-260z" />
    <glyph glyph-name="logicalnot" unicode="&#xac;" horiz-adv-x="1706" 
d="M254 864h1198v-502h-199v306h-999v196z" />
    <glyph glyph-name="sfthyphen" unicode="&#xad;" horiz-adv-x="483" 
d="M59 489v201h365v-201h-365z" />
    <glyph glyph-name="registered" unicode="&#xae;" horiz-adv-x="1706" 
d="M745 1034v-239h99q88 0 129 28t41 88q0 63 -44 93t-136 30h-89zM545 1161h323q176 0 264.5 -59.5t88.5 -177.5q0 -82 -48 -140t-133 -79l185 -369h-224l-157 338h-99v-338h-200v825zM854 1356q-127 0 -236 -44.5t-196 -131.5q-91 -91 -140 -206.5t-49 -238.5
q0 -124 46 -235.5t133 -198.5q89 -91 203 -139.5t237 -48.5q120 0 233.5 47t206.5 135q87 84 135 196t48 232q0 133 -44.5 245t-132.5 201q-90 93 -202.5 140t-241.5 47zM852 1479q154 0 290.5 -57.5t243.5 -166.5q103 -104 157 -238t54 -284q0 -152 -56 -287.5t-163 -238.5
q-107 -105 -243.5 -161t-282.5 -56q-149 0 -285 58t-243 167q-104 105 -158.5 238.5t-54.5 279.5q0 102 27 198.5t81 188.5q101 170 267 264.5t366 94.5z" />
    <glyph glyph-name="macron" unicode="&#xaf;" horiz-adv-x="1024" 
d="M295 1298v129h434v-129h-434z" />
    <glyph glyph-name="degree" unicode="&#xb0;" horiz-adv-x="674" 
d="M338 1335q-73 0 -124.5 -51t-51.5 -123q0 -74 51 -125t125 -51q72 0 123 52t51 124t-51 123t-123 51zM338 1464q126 0 214.5 -89.5t88.5 -215.5q0 -125 -89 -214t-216 -89q-126 0 -213.5 88t-87.5 215t88.5 216t214.5 89z" />
    <glyph glyph-name="plusminus" unicode="&#xb1;" horiz-adv-x="1706" 
d="M254 197h1198v-199h-1198v199zM752 1223h202v-326h498v-199h-498v-325h-202v325h-498v199h498v326z" />
    <glyph glyph-name="twosuperior" unicode="&#xb2;" horiz-adv-x="514" 
d="M285 1325q0 23 -8 33t-25 10t-24 -9.5t-7 -33.5v-162h-192v103q0 125 52.5 177t174.5 52q114 0 170.5 -51t56.5 -154q0 -119 -139 -313q-28 -39 -43 -59q-49 -70 -66.5 -110.5t-17.5 -74.5v-16h266v-127h-456v145q0 53 19.5 104t86.5 148q15 21 43 60q109 151 109 208v70
z" />
    <glyph glyph-name="threesuperior" unicode="&#xb3;" horiz-adv-x="514" 
d="M31 938h192v-190q0 -23 8 -33t25 -10q18 0 25.5 9.5t7.5 33.5v165q0 30 -17 50t-43 20h-67v127h67q28 0 44 19t16 53v143q0 23 -8 33t-25 10t-25 -10t-8 -33v-164h-192v105q0 126 52 177.5t173 51.5q112 0 169.5 -46.5t57.5 -137.5v-103q0 -64 -35.5 -103t-109.5 -56
q74 -8 109.5 -43t35.5 -101v-153q0 -89 -58.5 -136t-168.5 -47q-120 0 -172.5 53t-52.5 177v139z" />
    <glyph glyph-name="acute" unicode="&#xb4;" horiz-adv-x="1024" 
d="M559 1251h-162l97 224h254z" />
    <glyph glyph-name="mu" unicode="&#xb5;" horiz-adv-x="1249" 
d="M205 1092h289l-76 -435q-15 -80 -23 -151.5t-8 -116.5q0 -93 42 -138.5t128 -45.5q100 0 155.5 82t92.5 291l90 514h289l-193 -1092h-268l18 117q-42 -78 -93.5 -114t-121.5 -36q-67 0 -119 29.5t-94 91.5l-90 -526h-286z" />
    <glyph glyph-name="paragraph" unicode="&#xb6;" horiz-adv-x="1024" 
d="M983 1479v-111h-113v-1368h-151v1368h-158v-1368h-153v784q-167 6 -267 101t-100 245q0 158 107 253.5t284 95.5h551z" />
    <glyph glyph-name="glyph121" unicode="&#xb7;" horiz-adv-x="389" 
d="M195 895q65 0 111 -46.5t46 -111.5q0 -66 -46 -112.5t-111 -46.5q-66 0 -113 46.5t-47 112.5t46.5 112t113.5 46z" />
    <glyph glyph-name="cedilla" unicode="&#xb8;" horiz-adv-x="1024" 
d="M287 -266l159 198h170l-92 -198h-237z" />
    <glyph glyph-name="onesuperior" unicode="&#xb9;" horiz-adv-x="514" 
d="M174 590v678h-106v106h4q57 0 94.5 26.5t48.5 74.5h154v-885h-195z" />
    <glyph glyph-name="ordmasculine" unicode="&#xba;" horiz-adv-x="520" 
d="M225 1317v-502q0 -26 8.5 -37.5t28.5 -11.5q19 0 27 11.5t8 37.5v502q0 25 -9 37t-28 12q-18 0 -26.5 -11t-8.5 -38zM29 1260q0 128 53.5 181.5t177.5 53.5q123 0 176 -54t53 -181v-396q0 -128 -53 -181.5t-176 -53.5q-124 0 -177.5 53.5t-53.5 181.5v396z" />
    <glyph glyph-name="guillemotright" unicode="&#xbb;" horiz-adv-x="748" 
d="M47 1040l295 -327v-262l-295 -328v260l180 199l-180 198v260zM406 1040l294 -327v-262l-294 -328v260l180 199l-180 198v260z" />
    <glyph glyph-name="onequarter" unicode="&#xbc;" horiz-adv-x="1239" 
d="M991 0v205h-243v117l176 503h252v-503h57v-117h-57v-205h-185zM889 322h108l2 247q0 21 3.5 62.5t9.5 91.5h-13q-15 -71 -42.5 -170.5t-67.5 -230.5zM346 -33h-117l662 1540h117zM166 649v633h-100v98h2q53 0 89.5 25.5t47.5 68.5l145 1v-826h-184z" />
    <glyph glyph-name="onehalf" unicode="&#xbd;" horiz-adv-x="1239" 
d="M1020 686q0 21 -7.5 31t-23.5 10t-23.5 -9t-7.5 -32v-149h-184v94q0 116 50 164.5t167 48.5q109 0 163 -47.5t54 -143.5q0 -111 -135 -293q-25 -34 -39 -53q-47 -70 -63.5 -107t-16.5 -67v-14h256v-119h-436v137q0 51 20 100t80 134l42 56q104 141 104 196v63zM346 -33
h-117l662 1540h117zM166 649v633h-100v98h2q53 0 89.5 25.5t47.5 68.5l145 1v-826h-184z" />
    <glyph glyph-name="threequarters" unicode="&#xbe;" horiz-adv-x="1239" 
d="M991 0v205h-243v117l176 503h252v-503h57v-117h-57v-205h-185zM889 322h108l2 247q0 21 3.5 62.5t9.5 91.5h-13q-15 -71 -42.5 -170.5t-67.5 -230.5zM346 -33h-117l662 1540h117zM29 973h184v-176q0 -23 7.5 -32t25.5 -9q16 0 23 9.5t7 31.5v153q0 29 -17 47.5t-42 18.5
h-63v119h63q28 0 43.5 17.5t15.5 47.5v135q0 20 -7.5 29.5t-22.5 9.5q-18 0 -25.5 -9t-7.5 -30v-153h-184v98q0 117 49 165t166 48q107 0 162 -43t55 -127v-96q0 -59 -33.5 -96t-103.5 -54q70 -8 103.5 -40.5t33.5 -92.5v-145q0 -81 -56.5 -124.5t-160.5 -43.5
q-115 0 -165 48.5t-50 164.5v129z" />
    <glyph glyph-name="questiondown" unicode="&#xbf;" horiz-adv-x="768" 
d="M522 1475v-304h-268v304h268zM522 1104v-311q0 -108 -80 -207q-20 -25 -30 -39q-47 -62 -59.5 -93t-12.5 -67v-145q0 -43 11 -59.5t38 -16.5q24 0 34.5 16t10.5 58v286h271v-264q0 -142 -89.5 -218.5t-255.5 -76.5q-141 0 -220 75t-79 210v143q0 56 11 97.5t34 74.5
l101 146q4 6 13 18q34 45 34 105v268h268z" />
    <glyph glyph-name="Agrave" unicode="&#xc0;" horiz-adv-x="811" 
d="M12 0l236 1475h377l174 -1475h-305l-29 393h-146l-38 -393h-269zM342 610h109l-33 450q-3 38 -5 137q-1 43 -1 67h-11q-4 -85 -7 -135.5t-5 -66.5zM387 1550l-188 224h251l99 -224h-162z" />
    <glyph glyph-name="Aacute" unicode="&#xc1;" horiz-adv-x="811" 
d="M12 0l236 1475h377l174 -1475h-305l-29 393h-146l-38 -393h-269zM342 610h109l-33 450q-3 38 -5 137q-1 43 -1 67h-11q-4 -85 -7 -135.5t-5 -66.5zM479 1550h-162l97 224h254z" />
    <glyph glyph-name="Acircumflex" unicode="&#xc2;" horiz-adv-x="811" 
d="M12 0l236 1475h377l174 -1475h-305l-29 393h-146l-38 -393h-269zM342 610h109l-33 450q-3 38 -5 137q-1 43 -1 67h-11q-4 -85 -7 -135.5t-5 -66.5zM342 1550h-162l154 224h196l154 -224h-162l-90 111z" />
    <glyph glyph-name="Atilde" unicode="&#xc3;" horiz-adv-x="811" 
d="M12 0l236 1475h377l174 -1475h-305l-29 393h-146l-38 -393h-269zM342 610h109l-33 450q-3 38 -5 137q-1 43 -1 67h-11q-4 -85 -7 -135.5t-5 -66.5zM686 1763v-16q0 -87 -42.5 -136.5t-115.5 -49.5q-45 0 -107.5 31.5t-84.5 31.5q-24 0 -37.5 -15t-13.5 -40v-8h-107v16
q0 86 42.5 136t115.5 50q45 0 107.5 -31.5t84.5 -31.5q24 0 37.5 15t13.5 40v8h107z" />
    <glyph glyph-name="Adieresis" unicode="&#xc4;" horiz-adv-x="811" 
d="M12 0l236 1475h377l174 -1475h-305l-29 393h-146l-38 -393h-269zM342 610h109l-33 450q-3 38 -5 137q-1 43 -1 67h-11q-4 -85 -7 -135.5t-5 -66.5zM475 1561v200h184v-200h-184zM205 1561v200h182v-200h-182z" />
    <glyph glyph-name="Aring" unicode="&#xc5;" horiz-adv-x="811" 
d="M12 0l236 1475h377l174 -1475h-305l-29 393h-146l-38 -393h-269zM342 610h109l-33 450q-3 38 -5 137q-1 43 -1 67h-11q-4 -85 -7 -135.5t-5 -66.5zM262 1700q0 74 52.5 126t125.5 52q74 0 126 -52t52 -126q0 -75 -51.5 -126.5t-126.5 -51.5t-126.5 51.5t-51.5 126.5z
M373 1700q0 -28 19 -48t46 -20q29 0 48.5 20t19.5 48q0 29 -19 47t-49 18q-27 0 -46 -19t-19 -46z" />
    <glyph glyph-name="AE" unicode="&#xc6;" horiz-adv-x="1028" 
d="M997 1475v-205h-245v-340h245v-213h-245v-494h245v-223h-534v397h-141l-66 -397h-274l311 1475h704zM358 627h105v643h-18q-7 -69 -16 -142q-1 -9 -1 -12z" />
    <glyph glyph-name="Ccedilla" unicode="&#xc7;" horiz-adv-x="758" 
d="M41 1126q0 207 79.5 294t262.5 87q184 0 264 -86.5t80 -294.5v-163h-293v262q0 39 -11.5 55t-39.5 16q-27 0 -38 -16t-11 -55v-963q0 -39 11.5 -55.5t37.5 -16.5q28 0 39.5 17t11.5 55v297h293v-213q0 -206 -79.5 -292.5t-264.5 -86.5q-184 0 -263 85.5t-79 293.5v780z
M154 -266l159 198h170l-92 -198h-237z" />
    <glyph glyph-name="Egrave" unicode="&#xc8;" horiz-adv-x="629" 
d="M47 0v1475h549v-205h-254v-340h248v-213h-248v-494h254v-223h-549zM279 1550l-188 224h251l99 -224h-162z" />
    <glyph glyph-name="Eacute" unicode="&#xc9;" horiz-adv-x="629" 
d="M47 0v1475h549v-205h-254v-340h248v-213h-248v-494h254v-223h-549zM371 1550h-162l97 224h254z" />
    <glyph glyph-name="Ecircumflex" unicode="&#xca;" horiz-adv-x="629" 
d="M47 0v1475h549v-205h-254v-340h248v-213h-248v-494h254v-223h-549zM234 1550h-162l154 224h196l154 -224h-162l-90 111z" />
    <glyph glyph-name="Edieresis" unicode="&#xcb;" horiz-adv-x="629" 
d="M47 0v1475h549v-205h-254v-340h248v-213h-248v-494h254v-223h-549zM367 1561v200h184v-200h-184zM97 1561v200h182v-200h-182z" />
    <glyph glyph-name="Igrave" unicode="&#xcc;" horiz-adv-x="387" 
d="M45 0v1475h295v-1475h-295zM150 1550l-188 224h251l99 -224h-162z" />
    <glyph glyph-name="Iacute" unicode="&#xcd;" horiz-adv-x="387" 
d="M45 0v1475h295v-1475h-295zM242 1550h-162l97 224h254z" />
    <glyph glyph-name="Icircumflex" unicode="&#xce;" horiz-adv-x="387" 
d="M45 0v1475h295v-1475h-295zM105 1550h-162l154 224h196l154 -224h-162l-90 111z" />
    <glyph glyph-name="Idieresis" unicode="&#xcf;" horiz-adv-x="387" 
d="M45 0v1475h295v-1475h-295zM238 1561v200h184v-200h-184zM-32 1561v200h182v-200h-182z" />
    <glyph glyph-name="Eth" unicode="&#xd0;" horiz-adv-x="842" 
d="M383 731v-522q5 0 15 -1t14 -1q54 0 77 19t23 65v899q0 51 -21 68.5t-88 17.5h-20v-354h84v-191h-84zM457 1475q187 0 265.5 -81.5t78.5 -281.5v-747q0 -199 -84 -282t-281 -83h-342v731h-82v191h82v553h363z" />
    <glyph glyph-name="Ntilde" unicode="&#xd1;" horiz-adv-x="868" 
d="M45 0v1475h404l104 -625q14 -84 24 -188t17 -238h12q-7 156 -10.5 272.5t-3.5 167.5l-2 611h231v-1475h-346l-151 801q-9 47 -22.5 142t-27.5 208h-8q6 -92 9.5 -161t3.5 -113v-877h-234zM698 1763v-16q0 -87 -42.5 -136.5t-115.5 -49.5q-45 0 -107.5 31.5t-84.5 31.5
q-24 0 -37.5 -15t-13.5 -40v-8h-107v16q0 86 42.5 136t115.5 50q45 0 107.5 -31.5t84.5 -31.5q24 0 37.5 15t13.5 40v8h107z" />
    <glyph glyph-name="Ograve" unicode="&#xd2;" horiz-adv-x="768" 
d="M39 1126q0 206 80 293.5t264 87.5t264 -86.5t80 -294.5v-778q0 -207 -79.5 -294t-264.5 -87t-264.5 87t-79.5 294v778zM334 1225v-963q0 -39 11.5 -55.5t37.5 -16.5q28 0 39.5 17t11.5 55v963q0 39 -11.5 55t-39.5 16q-26 0 -37.5 -17t-11.5 -54zM340 1550l-188 224h251
l99 -224h-162z" />
    <glyph glyph-name="Oacute" unicode="&#xd3;" horiz-adv-x="768" 
d="M39 1126q0 206 80 293.5t264 87.5t264 -86.5t80 -294.5v-778q0 -207 -79.5 -294t-264.5 -87t-264.5 87t-79.5 294v778zM334 1225v-963q0 -39 11.5 -55.5t37.5 -16.5q28 0 39.5 17t11.5 55v963q0 39 -11.5 55t-39.5 16q-26 0 -37.5 -17t-11.5 -54zM432 1550h-162l97 224
h254z" />
    <glyph glyph-name="Ocircumflex" unicode="&#xd4;" horiz-adv-x="768" 
d="M39 1126q0 206 80 293.5t264 87.5t264 -86.5t80 -294.5v-778q0 -207 -79.5 -294t-264.5 -87t-264.5 87t-79.5 294v778zM334 1225v-963q0 -39 11.5 -55.5t37.5 -16.5q28 0 39.5 17t11.5 55v963q0 39 -11.5 55t-39.5 16q-26 0 -37.5 -17t-11.5 -54zM295 1550h-162l154 224
h196l154 -224h-162l-90 111z" />
    <glyph glyph-name="Otilde" unicode="&#xd5;" horiz-adv-x="768" 
d="M39 1126q0 206 80 293.5t264 87.5t264 -86.5t80 -294.5v-778q0 -207 -79.5 -294t-264.5 -87t-264.5 87t-79.5 294v778zM334 1225v-963q0 -39 11.5 -55.5t37.5 -16.5q28 0 39.5 17t11.5 55v963q0 39 -11.5 55t-39.5 16q-26 0 -37.5 -17t-11.5 -54zM639 1763v-16
q0 -87 -42.5 -136.5t-115.5 -49.5q-45 0 -107.5 31.5t-84.5 31.5q-24 0 -37.5 -15t-13.5 -40v-8h-107v16q0 86 42.5 136t115.5 50q45 0 107.5 -31.5t84.5 -31.5q24 0 37.5 15t13.5 40v8h107z" />
    <glyph glyph-name="Odieresis" unicode="&#xd6;" horiz-adv-x="768" 
d="M39 1126q0 206 80 293.5t264 87.5t264 -86.5t80 -294.5v-778q0 -207 -79.5 -294t-264.5 -87t-264.5 87t-79.5 294v778zM334 1225v-963q0 -39 11.5 -55.5t37.5 -16.5q28 0 39.5 17t11.5 55v963q0 39 -11.5 55t-39.5 16q-26 0 -37.5 -17t-11.5 -54zM428 1561v200h184v-200
h-184zM158 1561v200h182v-200h-182z" />
    <glyph glyph-name="multiply" unicode="&#xd7;" horiz-adv-x="1706" 
d="M416 1202l450 -450l451 450l141 -139l-450 -453l450 -450l-141 -140l-451 451l-450 -451l-140 140l451 450l-451 453z" />
    <glyph glyph-name="Oslash" unicode="&#xd8;" horiz-adv-x="768" 
d="M322 385v-123q0 -41 13.5 -56.5t47.5 -15.5q33 0 48 17.5t15 54.5v580q-10 -43 -18 -74t-12 -43zM446 1133v92q0 38 -14.5 54.5t-48.5 16.5q-33 0 -47 -16t-14 -55v-541q10 43 15.5 65t8.5 31zM41 1126q0 207 79.5 294t262.5 87q50 0 93 -8.5t81 -25.5l57 167h119
l-76 -231q38 -42 54 -100.5t16 -182.5v-780q0 -213 -81.5 -297t-280.5 -84q-58 0 -92.5 8.5t-63.5 28.5l-53 -162h-119l74 230q-38 47 -54 103t-16 173v780z" />
    <glyph glyph-name="Ugrave" unicode="&#xd9;" 
d="M733 1475v-1129q0 -206 -79.5 -292.5t-264.5 -86.5t-264.5 86.5t-79.5 292.5v1129h293v-1213q0 -38 12 -55t39 -17t38 16.5t11 55.5v1213h295zM344 1550l-188 224h251l99 -224h-162z" />
    <glyph glyph-name="Uacute" unicode="&#xda;" 
d="M733 1475v-1129q0 -206 -79.5 -292.5t-264.5 -86.5t-264.5 86.5t-79.5 292.5v1129h293v-1213q0 -38 12 -55t39 -17t38 16.5t11 55.5v1213h295zM436 1550h-162l97 224h254z" />
    <glyph glyph-name="Ucircumflex" unicode="&#xdb;" 
d="M733 1475v-1129q0 -206 -79.5 -292.5t-264.5 -86.5t-264.5 86.5t-79.5 292.5v1129h293v-1213q0 -38 12 -55t39 -17t38 16.5t11 55.5v1213h295zM299 1550h-162l154 224h196l154 -224h-162l-90 111z" />
    <glyph glyph-name="Udieresis" unicode="&#xdc;" 
d="M733 1475v-1129q0 -206 -79.5 -292.5t-264.5 -86.5t-264.5 86.5t-79.5 292.5v1129h293v-1213q0 -38 12 -55t39 -17t38 16.5t11 55.5v1213h295zM432 1561v200h184v-200h-184zM162 1561v200h182v-200h-182z" />
    <glyph glyph-name="Yacute" unicode="&#xdd;" horiz-adv-x="729" 
d="M217 0v559l-223 916h303l53 -336q10 -62 16 -120.5t9 -117.5h12q9 78 16.5 137t14.5 99l59 338h262l-229 -916v-559h-293zM412 1550h-162l97 224h254z" />
    <glyph glyph-name="Thorn" unicode="&#xde;" horiz-adv-x="758" 
d="M47 0v1475h295v-234h49q181 0 261.5 -63t80.5 -205v-314q0 -172 -81.5 -244.5t-274.5 -72.5h-35v-342h-295zM440 629v342q0 49 -17.5 66.5t-68.5 17.5h-12v-508q4 0 12 -1t13 -1q40 0 56.5 18.5t16.5 65.5z" />
    <glyph glyph-name="germandbls" unicode="&#xdf;" horiz-adv-x="688" 
d="M301 0h-260v1206q0 151 75.5 225t229.5 74q155 0 230 -73.5t75 -225.5v-98q0 -125 -37 -181.5t-125 -70.5v-10q91 -15 126.5 -68.5t35.5 -183.5v-344q0 -133 -46 -191.5t-150 -58.5h-119v184h6q30 0 41.5 15.5t11.5 56.5v416q0 41 -11.5 57t-41.5 16h-6v181h6
q30 0 41.5 15.5t11.5 55.5v250q0 38 -12 56t-37 18q-24 0 -34.5 -17t-10.5 -57v-1247z" />
    <glyph glyph-name="agrave" unicode="&#xe0;" horiz-adv-x="694" 
d="M395 266v313q-6 -4 -16 -12q-78 -60 -78 -106v-195q0 -40 10.5 -54.5t36.5 -14.5q24 0 35.5 16.5t11.5 52.5zM39 938q0 134 77.5 202t229.5 68q166 0 236.5 -75.5t70.5 -260.5v-718q0 -47 4.5 -83.5t14.5 -70.5h-264q-5 21 -8 42.5t-3 39.5v18h-4q-28 -58 -75.5 -89
t-110.5 -31q-83 0 -125.5 50t-42.5 148v250q0 93 33.5 151.5t107.5 98.5q24 13 68 35q147 75 147 143v84q0 38 -11.5 55t-37.5 17q-24 0 -34.5 -17t-10.5 -55v-172h-262v170zM315 1251l-188 224h251l99 -224h-162z" />
    <glyph glyph-name="aacute" unicode="&#xe1;" horiz-adv-x="694" 
d="M395 266v313q-6 -4 -16 -12q-78 -60 -78 -106v-195q0 -40 10.5 -54.5t36.5 -14.5q24 0 35.5 16.5t11.5 52.5zM39 938q0 134 77.5 202t229.5 68q166 0 236.5 -75.5t70.5 -260.5v-718q0 -47 4.5 -83.5t14.5 -70.5h-264q-5 21 -8 42.5t-3 39.5v18h-4q-28 -58 -75.5 -89
t-110.5 -31q-83 0 -125.5 50t-42.5 148v250q0 93 33.5 151.5t107.5 98.5q24 13 68 35q147 75 147 143v84q0 38 -11.5 55t-37.5 17q-24 0 -34.5 -17t-10.5 -55v-172h-262v170zM407 1251h-162l97 224h254z" />
    <glyph glyph-name="acircumflex" unicode="&#xe2;" horiz-adv-x="694" 
d="M395 266v313q-6 -4 -16 -12q-78 -60 -78 -106v-195q0 -40 10.5 -54.5t36.5 -14.5q24 0 35.5 16.5t11.5 52.5zM39 938q0 134 77.5 202t229.5 68q166 0 236.5 -75.5t70.5 -260.5v-718q0 -47 4.5 -83.5t14.5 -70.5h-264q-5 21 -8 42.5t-3 39.5v18h-4q-28 -58 -75.5 -89
t-110.5 -31q-83 0 -125.5 50t-42.5 148v250q0 93 33.5 151.5t107.5 98.5q24 13 68 35q147 75 147 143v84q0 38 -11.5 55t-37.5 17q-24 0 -34.5 -17t-10.5 -55v-172h-262v170zM270 1251h-162l154 224h196l154 -224h-162l-90 111z" />
    <glyph glyph-name="atilde" unicode="&#xe3;" horiz-adv-x="694" 
d="M395 266v313q-6 -4 -16 -12q-78 -60 -78 -106v-195q0 -40 10.5 -54.5t36.5 -14.5q24 0 35.5 16.5t11.5 52.5zM39 938q0 134 77.5 202t229.5 68q166 0 236.5 -75.5t70.5 -260.5v-718q0 -47 4.5 -83.5t14.5 -70.5h-264q-5 21 -8 42.5t-3 39.5v18h-4q-28 -58 -75.5 -89
t-110.5 -31q-83 0 -125.5 50t-42.5 148v250q0 93 33.5 151.5t107.5 98.5q24 13 68 35q147 75 147 143v84q0 38 -11.5 55t-37.5 17q-24 0 -34.5 -17t-10.5 -55v-172h-262v170zM614 1464v-16q0 -87 -42.5 -136.5t-115.5 -49.5q-45 0 -107.5 31.5t-84.5 31.5q-24 0 -37.5 -15
t-13.5 -40v-8h-107v16q0 86 42.5 136t115.5 50q45 0 107.5 -31.5t84.5 -31.5q24 0 37.5 15t13.5 40v8h107z" />
    <glyph glyph-name="adieresis" unicode="&#xe4;" horiz-adv-x="694" 
d="M395 266v313q-6 -4 -16 -12q-78 -60 -78 -106v-195q0 -40 10.5 -54.5t36.5 -14.5q24 0 35.5 16.5t11.5 52.5zM39 938q0 134 77.5 202t229.5 68q166 0 236.5 -75.5t70.5 -260.5v-718q0 -47 4.5 -83.5t14.5 -70.5h-264q-5 21 -8 42.5t-3 39.5v18h-4q-28 -58 -75.5 -89
t-110.5 -31q-83 0 -125.5 50t-42.5 148v250q0 93 33.5 151.5t107.5 98.5q24 13 68 35q147 75 147 143v84q0 38 -11.5 55t-37.5 17q-24 0 -34.5 -17t-10.5 -55v-172h-262v170zM403 1262v200h184v-200h-184zM133 1262v200h182v-200h-182z" />
    <glyph glyph-name="aring" unicode="&#xe5;" horiz-adv-x="694" 
d="M39 938q0 134 77.5 202t229.5 68q166 0 236.5 -75.5t70.5 -260.5v-718q0 -47 4.5 -83.5t14.5 -70.5h-264q-5 21 -8 42.5t-3 39.5v18h-4q-28 -58 -75.5 -89t-110.5 -31q-83 0 -125.5 50t-42.5 148v250q0 93 33.5 151.5t107.5 98.5q24 13 68 35q147 75 147 143v84
q0 38 -11.5 55t-37.5 17q-24 0 -34.5 -17t-10.5 -55v-172h-262v170zM395 266v313q-6 -4 -16 -12q-78 -60 -78 -106v-195q0 -40 10.5 -54.5t36.5 -14.5q24 0 35.5 16.5t11.5 52.5zM188 1427q0 74 52.5 126.5t126.5 52.5q73 0 125.5 -52.5t52.5 -126.5t-52 -127t-126 -53
q-75 0 -127 52.5t-52 127.5zM299 1425q0 -27 20 -46t48 -19t47.5 18.5t19.5 46.5q0 30 -19 49t-48 19q-28 0 -48 -20t-20 -48z" />
    <glyph glyph-name="ae" unicode="&#xe6;" horiz-adv-x="1036" 
d="M395 266v314q-63 -45 -78.5 -67.5t-15.5 -51.5v-195q0 -40 10.5 -54.5t36.5 -14.5q24 0 35.5 16.5t11.5 52.5zM1001 467v-227q0 -128 -68.5 -198.5t-193.5 -70.5q-68 0 -120.5 21.5t-98.5 66.5q-49 -46 -106.5 -67t-137.5 -21q-111 0 -174 62t-63 172v223
q0 95 33.5 151.5t115.5 102.5q24 13 69 36q138 70 138 138v84q0 38 -11.5 55t-37.5 17q-24 0 -34.5 -17t-10.5 -55v-172h-262v170q0 136 76 203t231 67q57 0 99 -14t77 -45q37 31 82 45t107 14q136 0 213 -67.5t77 -186.5v-401h-354v-315q0 -39 11 -55.5t36 -16.5t36 16.5
t11 55.5v229h260zM647 952v-223h94v223q0 38 -11.5 55t-37.5 17q-24 0 -34.5 -16t-10.5 -56z" />
    <glyph glyph-name="ccedilla" unicode="&#xe7;" horiz-adv-x="684" 
d="M39 307v565q0 186 70 261t235 75q145 0 227 -67.5t82 -186.5v-186h-260v184q0 39 -11 55.5t-36 16.5t-36 -16.5t-11 -55.5v-714q0 -39 11 -55.5t36 -16.5t36 16.5t11 55.5v221h260v-219q0 -128 -80.5 -198.5t-226.5 -70.5q-165 0 -236 76t-71 260zM117 -266l159 198h170
l-92 -198h-237z" />
    <glyph glyph-name="egrave" unicode="&#xe8;" horiz-adv-x="692" 
d="M299 952v-223h94v223q0 39 -11 55.5t-36 16.5t-36 -16.5t-11 -55.5zM299 238q0 -39 11 -55.5t36 -16.5t36 16.5t11 55.5v221h260v-219q0 -128 -80.5 -198.5t-226.5 -70.5q-165 0 -236 76t-71 260v565q0 186 70 261t235 75q145 0 227 -67.5t82 -186.5v-401h-354v-315z
M301 1251l-188 224h251l99 -224h-162z" />
    <glyph glyph-name="eacute" unicode="&#xe9;" horiz-adv-x="692" 
d="M299 952v-223h94v223q0 39 -11 55.5t-36 16.5t-36 -16.5t-11 -55.5zM299 238q0 -39 11 -55.5t36 -16.5t36 16.5t11 55.5v221h260v-219q0 -128 -80.5 -198.5t-226.5 -70.5q-165 0 -236 76t-71 260v565q0 186 70 261t235 75q145 0 227 -67.5t82 -186.5v-401h-354v-315z
M393 1251h-162l97 224h254z" />
    <glyph glyph-name="ecircumflex" unicode="&#xea;" horiz-adv-x="692" 
d="M299 952v-223h94v223q0 39 -11 55.5t-36 16.5t-36 -16.5t-11 -55.5zM299 238q0 -39 11 -55.5t36 -16.5t36 16.5t11 55.5v221h260v-219q0 -128 -80.5 -198.5t-226.5 -70.5q-165 0 -236 76t-71 260v565q0 186 70 261t235 75q145 0 227 -67.5t82 -186.5v-401h-354v-315z
M256 1251h-162l154 224h196l154 -224h-162l-90 111z" />
    <glyph glyph-name="edieresis" unicode="&#xeb;" horiz-adv-x="692" 
d="M299 952v-223h94v223q0 39 -11 55.5t-36 16.5t-36 -16.5t-11 -55.5zM299 238q0 -39 11 -55.5t36 -16.5t36 16.5t11 55.5v221h260v-219q0 -128 -80.5 -198.5t-226.5 -70.5q-165 0 -236 76t-71 260v565q0 186 70 261t235 75q145 0 227 -67.5t82 -186.5v-401h-354v-315z
M389 1262v200h184v-200h-184zM119 1262v200h182v-200h-182z" />
    <glyph glyph-name="igrave" unicode="&#xec;" horiz-adv-x="346" 
d="M43 0v1180h260v-1180h-260zM129 1251l-188 224h251l99 -224h-162z" />
    <glyph glyph-name="iacute" unicode="&#xed;" horiz-adv-x="346" 
d="M43 0v1180h260v-1180h-260zM221 1251h-162l97 224h254z" />
    <glyph glyph-name="icircumflex" unicode="&#xee;" horiz-adv-x="346" 
d="M43 0v1180h260v-1180h-260zM84 1251h-162l154 224h196l154 -224h-162l-90 111z" />
    <glyph glyph-name="idieresis" unicode="&#xef;" horiz-adv-x="346" 
d="M43 0v1180h260v-1180h-260zM217 1262v200h184v-200h-184zM-53 1262v200h182v-200h-182z" />
    <glyph glyph-name="eth" unicode="&#xf0;" horiz-adv-x="692" 
d="M301 231q0 -35 11 -50t36 -15t36 15.5t11 49.5v635q0 34 -12 50t-37 16q-24 0 -34.5 -15.5t-10.5 -50.5v-635zM348 1092q-17 30 -44 62.5t-64 68.5l-183 -64l-28 82l137 51q-17 15 -37.5 31t-50.5 35l168 115q34 -30 63 -57.5t58 -55.5l206 74l33 -88l-166 -60
q117 -121 165 -234t48 -304v-472q0 -165 -71 -235t-236 -70t-236 69.5t-71 235.5v539q0 178 38.5 241.5t131.5 63.5q38 0 71.5 -7t67.5 -21z" />
    <glyph glyph-name="ntilde" unicode="&#xf1;" horiz-adv-x="698" 
d="M43 0v1180h256v-99h4q33 62 79 91.5t107 29.5q85 0 127.5 -50.5t42.5 -150.5v-1001h-262v915q0 41 -10.5 55.5t-36.5 14.5q-24 0 -35.5 -17t-11.5 -53v-915h-260zM604 1464v-16q0 -87 -42.5 -136.5t-115.5 -49.5q-45 0 -107.5 31.5t-84.5 31.5q-24 0 -37.5 -15t-13.5 -40
v-8h-107v16q0 86 42.5 136t115.5 50q45 0 107.5 -31.5t84.5 -31.5q24 0 37.5 15t13.5 40v8h107z" />
    <glyph glyph-name="ograve" unicode="&#xf2;" horiz-adv-x="692" 
d="M301 952v-714q0 -39 11 -55.5t36 -16.5t36 16.5t11 55.5v714q0 38 -11.5 55t-37.5 17q-24 0 -34.5 -16t-10.5 -56zM39 872q0 183 71.5 259.5t235.5 76.5t235.5 -76.5t71.5 -259.5v-565q0 -182 -71.5 -259t-235.5 -77t-235.5 77t-71.5 259v565zM301 1251l-188 224h251
l99 -224h-162z" />
    <glyph glyph-name="oacute" unicode="&#xf3;" horiz-adv-x="692" 
d="M301 952v-714q0 -39 11 -55.5t36 -16.5t36 16.5t11 55.5v714q0 38 -11.5 55t-37.5 17q-24 0 -34.5 -16t-10.5 -56zM39 872q0 183 71.5 259.5t235.5 76.5t235.5 -76.5t71.5 -259.5v-565q0 -182 -71.5 -259t-235.5 -77t-235.5 77t-71.5 259v565zM393 1251h-162l97 224h254z
" />
    <glyph glyph-name="ocircumflex" unicode="&#xf4;" horiz-adv-x="692" 
d="M301 952v-714q0 -39 11 -55.5t36 -16.5t36 16.5t11 55.5v714q0 38 -11.5 55t-37.5 17q-24 0 -34.5 -16t-10.5 -56zM39 872q0 183 71.5 259.5t235.5 76.5t235.5 -76.5t71.5 -259.5v-565q0 -182 -71.5 -259t-235.5 -77t-235.5 77t-71.5 259v565zM256 1251h-162l154 224h196
l154 -224h-162l-90 111z" />
    <glyph glyph-name="otilde" unicode="&#xf5;" horiz-adv-x="692" 
d="M301 952v-714q0 -39 11 -55.5t36 -16.5t36 16.5t11 55.5v714q0 38 -11.5 55t-37.5 17q-24 0 -34.5 -16t-10.5 -56zM39 872q0 183 71.5 259.5t235.5 76.5t235.5 -76.5t71.5 -259.5v-565q0 -182 -71.5 -259t-235.5 -77t-235.5 77t-71.5 259v565zM600 1464v-16
q0 -87 -42.5 -136.5t-115.5 -49.5q-45 0 -107.5 31.5t-84.5 31.5q-24 0 -37.5 -15t-13.5 -40v-8h-107v16q0 86 42.5 136t115.5 50q45 0 107.5 -31.5t84.5 -31.5q24 0 37.5 15t13.5 40v8h107z" />
    <glyph glyph-name="odieresis" unicode="&#xf6;" horiz-adv-x="692" 
d="M301 952v-714q0 -39 11 -55.5t36 -16.5t36 16.5t11 55.5v714q0 38 -11.5 55t-37.5 17q-24 0 -34.5 -16t-10.5 -56zM39 872q0 183 71.5 259.5t235.5 76.5t235.5 -76.5t71.5 -259.5v-565q0 -182 -71.5 -259t-235.5 -77t-235.5 77t-71.5 259v565zM389 1262v200h184v-200
h-184zM119 1262v200h182v-200h-182z" />
    <glyph glyph-name="divide" unicode="&#xf7;" horiz-adv-x="1706" 
d="M854 369q62 0 107 -45t45 -107q0 -61 -45 -105t-107 -44q-63 0 -107.5 43t-44.5 106t44.5 107.5t107.5 44.5zM254 711h1198v-199h-1198v199zM854 1155q62 0 107 -44.5t45 -106.5q0 -63 -44.5 -107.5t-107.5 -44.5t-107.5 44.5t-44.5 107.5t44.5 107t107.5 44z" />
    <glyph glyph-name="oslash" unicode="&#xf8;" horiz-adv-x="692" 
d="M289 332v-94q0 -36 14.5 -54t44.5 -18q31 0 44.5 16.5t13.5 55.5v426q-5 -15 -14.5 -49t-14.5 -47zM406 854v98q0 39 -13.5 55.5t-44.5 16.5q-30 0 -44.5 -18t-14.5 -54v-426q11 42 32 95q5 13 7 18zM39 872q0 183 71.5 259.5t235.5 76.5q54 0 86 -6t62 -20l59 164h113
l-78 -218q35 -38 50 -92.5t15 -163.5v-565q0 -182 -71.5 -259t-235.5 -77q-49 0 -82 6t-63 19l-54 -154h-114l73 211q-36 38 -51.5 93.5t-15.5 160.5v565z" />
    <glyph glyph-name="ugrave" unicode="&#xf9;" horiz-adv-x="698" 
d="M659 1180v-1180h-256v98h-6q-33 -61 -77.5 -89.5t-106.5 -28.5q-85 0 -127.5 49.5t-42.5 148.5v1002h260v-916q0 -39 11.5 -54t37.5 -15q24 0 34.5 16t10.5 53v916h262zM305 1251l-188 224h251l99 -224h-162z" />
    <glyph glyph-name="uacute" unicode="&#xfa;" horiz-adv-x="698" 
d="M659 1180v-1180h-256v98h-6q-33 -61 -77.5 -89.5t-106.5 -28.5q-85 0 -127.5 49.5t-42.5 148.5v1002h260v-916q0 -39 11.5 -54t37.5 -15q24 0 34.5 16t10.5 53v916h262zM397 1251h-162l97 224h254z" />
    <glyph glyph-name="ucircumflex" unicode="&#xfb;" horiz-adv-x="698" 
d="M659 1180v-1180h-256v98h-6q-33 -61 -77.5 -89.5t-106.5 -28.5q-85 0 -127.5 49.5t-42.5 148.5v1002h260v-916q0 -39 11.5 -54t37.5 -15q24 0 34.5 16t10.5 53v916h262zM260 1251h-162l154 224h196l154 -224h-162l-90 111z" />
    <glyph glyph-name="udieresis" unicode="&#xfc;" horiz-adv-x="698" 
d="M659 1180v-1180h-256v98h-6q-33 -61 -77.5 -89.5t-106.5 -28.5q-85 0 -127.5 49.5t-42.5 148.5v1002h260v-916q0 -39 11.5 -54t37.5 -15q24 0 34.5 16t10.5 53v916h262zM393 1262v200h184v-200h-184zM123 1262v200h182v-200h-182z" />
    <glyph glyph-name="yacute" unicode="&#xfd;" horiz-adv-x="627" 
d="M467 -8q-23 -151 -74.5 -204.5t-167.5 -53.5h-221v190h111q26 0 37.5 8.5t11.5 28.5q0 7 -2 24t-8 64l-172 1131h268l45 -593q3 -42 6 -115t7 -177h7q5 66 11.5 138.5t17.5 178.5l59 568h244zM360 1251h-162l97 224h254z" />
    <glyph glyph-name="thorn" unicode="&#xfe;" horiz-adv-x="696" 
d="M303 915v-655q0 -36 11.5 -53t35.5 -17q26 0 36.5 15.5t10.5 54.5v655q0 39 -10.5 54.5t-36.5 15.5q-23 0 -35 -17.5t-12 -52.5zM43 -266v1741h260v-394q28 59 76 90t110 31q86 0 128 -50t42 -151v-825q0 -100 -42.5 -150.5t-127.5 -50.5q-59 0 -103 27t-83 86v-354h-260
z" />
    <glyph glyph-name="ydieresis" unicode="&#xff;" horiz-adv-x="627" 
d="M467 -8q-23 -151 -74.5 -204.5t-167.5 -53.5h-221v190h111q26 0 37.5 8.5t11.5 28.5q0 7 -2 24t-8 64l-172 1131h268l45 -593q3 -42 6 -115t7 -177h7q5 66 11.5 138.5t17.5 178.5l59 568h244zM356 1262v200h184v-200h-184zM86 1262v200h182v-200h-182z" />
    <glyph glyph-name="Cacute" unicode="&#x106;" horiz-adv-x="758" 
d="M41 1126q0 207 79.5 294t262.5 87q184 0 264 -86.5t80 -294.5v-163h-293v262q0 39 -11.5 55t-39.5 16q-27 0 -38 -16t-11 -55v-963q0 -39 11.5 -55.5t37.5 -16.5q28 0 39.5 17t11.5 55v297h293v-213q0 -206 -79.5 -292.5t-264.5 -86.5q-184 0 -263 85.5t-79 293.5v780z
M430 1550h-162l97 224h254z" />
    <glyph glyph-name="cacute" unicode="&#x107;" horiz-adv-x="684" 
d="M39 307v565q0 186 70 261t235 75q145 0 227 -67.5t82 -186.5v-186h-260v184q0 39 -11 55.5t-36 16.5t-36 -16.5t-11 -55.5v-714q0 -39 11 -55.5t36 -16.5t36 16.5t11 55.5v221h260v-219q0 -128 -80.5 -198.5t-226.5 -70.5q-165 0 -236 76t-71 260zM389 1251h-162l97 224
h254z" />
    <glyph glyph-name="Ccaron" unicode="&#x10c;" horiz-adv-x="758" 
d="M41 1126q0 207 79.5 294t262.5 87q184 0 264 -86.5t80 -294.5v-163h-293v262q0 39 -11.5 55t-39.5 16q-27 0 -38 -16t-11 -55v-963q0 -39 11.5 -55.5t37.5 -16.5q28 0 39.5 17t11.5 55v297h293v-213q0 -206 -79.5 -292.5t-264.5 -86.5q-184 0 -263 85.5t-79 293.5v780z
M473 1774h162l-154 -224h-196l-154 224h162l90 -111z" />
    <glyph glyph-name="ccaron" unicode="&#x10d;" horiz-adv-x="684" 
d="M39 307v565q0 186 70 261t235 75q145 0 227 -67.5t82 -186.5v-186h-260v184q0 39 -11 55.5t-36 16.5t-36 -16.5t-11 -55.5v-714q0 -39 11 -55.5t36 -16.5t36 16.5t11 55.5v221h260v-219q0 -128 -80.5 -198.5t-226.5 -70.5q-165 0 -236 76t-71 260zM432 1475h162
l-154 -224h-196l-154 224h162l90 -111z" />
    <glyph glyph-name="dcroat" unicode="&#x111;" horiz-adv-x="739" 
d="M653 1475v-101h92v-100h-92v-1274h-256v102h-4q-26 -65 -72.5 -98t-113.5 -33q-85 0 -126.5 49.5t-41.5 149.5v831q0 101 42 151t126 50q62 0 107 -30t75 -91h4v193h-172v100h172v101h260zM299 258q0 -41 10.5 -56.5t36.5 -15.5q24 0 35.5 18t11.5 54v657q0 36 -11.5 53
t-35.5 17q-26 0 -36.5 -14.5t-10.5 -55.5v-657z" />
    <glyph glyph-name="Gbreve" unicode="&#x11e;" horiz-adv-x="764" 
d="M39 1126q0 207 79.5 294t264.5 87q173 0 258.5 -80.5t85.5 -242.5v-221h-293v262q0 39 -11.5 55t-39.5 16q-26 0 -37.5 -17t-11.5 -54v-963q0 -39 11.5 -55.5t37.5 -16.5q28 0 39.5 17t11.5 55v260h-74v228h367v-750h-145l-19 92q-51 -65 -113 -97t-137 -32
q-137 0 -205.5 96t-68.5 289v778zM299 1774q0 -53 20 -77t64 -24t64 24t20 77h131v-13q0 -106 -54.5 -160.5t-160.5 -54.5t-160.5 54.5t-54.5 160.5v13h131z" />
    <glyph glyph-name="gbreve" unicode="&#x11f;" horiz-adv-x="694" 
d="M299 412q0 -41 10.5 -56.5t36.5 -15.5q24 0 35.5 17.5t11.5 54.5v512q0 36 -11.5 52.5t-35.5 16.5q-26 0 -36.5 -14.5t-10.5 -54.5v-512zM393 260h-4q-28 -66 -73.5 -98.5t-110.5 -32.5q-86 0 -126 47.5t-40 151.5v690q0 89 43 136.5t125 47.5q62 0 107 -29t79 -92h6v99
h254v-1110q0 -185 -71 -260.5t-236 -75.5q-146 0 -226.5 70.5t-80.5 197.5v90h260v-92q0 -39 11 -55.5t36 -16.5t36 17t11 55v260zM264 1475q0 -53 20 -77t64 -24t64 24t20 77h131v-13q0 -106 -54.5 -160.5t-160.5 -54.5t-160.5 54.5t-54.5 160.5v13h131z" />
    <glyph glyph-name="Idotaccent" unicode="&#x130;" horiz-adv-x="387" 
d="M45 0v1475h295v-1475h-295zM99 1559v206h192v-206h-192z" />
    <glyph glyph-name="dotlessi" unicode="&#x131;" horiz-adv-x="346" 
d="M43 0v1180h260v-1180h-260z" />
    <glyph glyph-name="Lslash" unicode="&#x141;" horiz-adv-x="674" 
d="M94 0v567l-94 -65v213l94 67v693h295v-560l127 93v-215l-127 -91v-479h254v-223h-549z" />
    <glyph glyph-name="lslash" unicode="&#x142;" horiz-adv-x="461" 
d="M90 0v616l-90 -61v131l90 64v725h260v-615l90 64v-131l-90 -64v-729h-260z" />
    <glyph glyph-name="OE" unicode="&#x152;" horiz-adv-x="997" 
d="M336 1225v-963q0 -39 11.5 -55.5t37.5 -16.5q28 0 39.5 17t11.5 55v963q0 38 -12 54.5t-39 16.5t-38 -16t-11 -55zM567 0q-37 -17 -79 -25t-101 -8q-184 0 -265 88.5t-81 290.5v780q0 207 80.5 294t265.5 87q56 0 98.5 -7.5t81.5 -24.5h416v-205h-254v-340h250v-213h-250
v-494h254v-223h-416z" />
    <glyph glyph-name="oe" unicode="&#x153;" horiz-adv-x="1038" 
d="M649 952v-223h94v223q0 39 -11 55.5t-36 16.5t-36 -16.5t-11 -55.5zM649 238q0 -39 11 -55.5t36 -16.5t36 16.5t11 55.5v221h261v-219q0 -127 -77 -198t-214 -71q-56 0 -101 12.5t-90 39.5q-42 -27 -90 -39.5t-106 -12.5q-152 0 -219.5 78.5t-67.5 257.5v565
q0 183 71.5 259.5t235.5 76.5q58 0 98.5 -11.5t77.5 -37.5q36 26 76.5 37.5t95.5 11.5q145 0 227.5 -67.5t82.5 -186.5v-401h-355v-315zM301 952v-714q0 -39 11 -55.5t36 -16.5t36 16.5t11 55.5v714q0 38 -11.5 55t-37.5 17q-24 0 -34.5 -16t-10.5 -56z" />
    <glyph glyph-name="Scedilla" unicode="&#x15e;" horiz-adv-x="754" 
d="M33 1210q0 141 90.5 219t253.5 78q164 0 253 -78.5t89 -224.5v-241h-293v262q0 40 -11 55.5t-38 15.5q-28 0 -39.5 -16.5t-11.5 -54.5v-131q0 -33 8.5 -57.5t27.5 -47.5l283 -311q40 -43 57 -91t17 -153v-172q0 -142 -89.5 -218.5t-254.5 -76.5q-169 0 -255.5 80
t-86.5 236v276h293v-297q0 -38 11.5 -55t39.5 -17q26 0 37.5 16.5t11.5 55.5v156q0 32 -11.5 59.5t-39.5 59.5l-266 301q-41 46 -58.5 92.5t-17.5 124.5v22v133zM152 -266l159 198h170l-92 -198h-237z" />
    <glyph glyph-name="scedilla" unicode="&#x15f;" horiz-adv-x="682" 
d="M651 244q0 -132 -79 -202.5t-228 -70.5q-146 0 -227.5 71t-81.5 198v219h262v-221q0 -39 11 -55.5t36 -16.5t36 16.5t11 55.5v106q0 72 -130 176q-28 22 -44 35l-2 2q-180 149 -180 299v105q0 117 81 182t226 65q147 0 228 -68t81 -192v-180h-260v184q0 39 -11 55.5
t-36 16.5t-36 -16.5t-11 -55.5v-63q0 -80 125 -176q29 -22 45 -35q123 -99 153.5 -154.5t30.5 -144.5v-135zM117 -266l159 198h170l-92 -198h-237z" />
    <glyph glyph-name="Scaron" unicode="&#x160;" horiz-adv-x="754" 
d="M33 1210q0 141 90.5 219t253.5 78q164 0 253 -78.5t89 -224.5v-241h-293v262q0 40 -11 55.5t-38 15.5q-28 0 -39.5 -16.5t-11.5 -54.5v-131q0 -33 8.5 -57.5t27.5 -47.5l283 -311q40 -43 57 -91t17 -153v-172q0 -142 -89.5 -218.5t-254.5 -76.5q-169 0 -255.5 80
t-86.5 236v276h293v-297q0 -38 11.5 -55t39.5 -17q26 0 37.5 16.5t11.5 55.5v156q0 32 -11.5 59.5t-39.5 59.5l-266 301q-41 46 -58.5 92.5t-17.5 124.5v22v133zM467 1774h162l-154 -224h-196l-154 224h162l90 -111z" />
    <glyph glyph-name="scaron" unicode="&#x161;" horiz-adv-x="682" 
d="M651 244q0 -132 -79 -202.5t-228 -70.5q-146 0 -227.5 71t-81.5 198v219h262v-221q0 -39 11 -55.5t36 -16.5t36 16.5t11 55.5v106q0 72 -130 176q-28 22 -44 35l-2 2q-180 149 -180 299v105q0 117 81 182t226 65q147 0 228 -68t81 -192v-180h-260v184q0 39 -11 55.5
t-36 16.5t-36 -16.5t-11 -55.5v-63q0 -80 125 -176q29 -22 45 -35q123 -99 153.5 -154.5t30.5 -144.5v-135zM432 1475h162l-154 -224h-196l-154 224h162l90 -111z" />
    <glyph glyph-name="Ydieresis" unicode="&#x178;" horiz-adv-x="729" 
d="M217 0v559l-223 916h303l53 -336q10 -62 16 -120.5t9 -117.5h12q9 78 16.5 137t14.5 99l59 338h262l-229 -916v-559h-293zM408 1561v200h184v-200h-184zM138 1561v200h182v-200h-182z" />
    <glyph glyph-name="Zcaron" unicode="&#x17d;" horiz-adv-x="643" 
d="M31 0v227l274 1035h-274v213h577v-175l-289 -1077h291v-223h-579zM412 1774h162l-154 -224h-196l-154 224h162l90 -111z" />
    <glyph glyph-name="zcaron" unicode="&#x17e;" horiz-adv-x="522" 
d="M16 0v205l215 780h-208v195h489v-170l-225 -811h225v-199h-496zM352 1475h162l-154 -224h-196l-154 224h162l90 -111z" />
    <glyph glyph-name="florin" unicode="&#x192;" 
d="M55 -268v207h66q79 0 100 27.5t21 115.5v594h-187v160h187v284q0 204 70.5 279.5t250.5 75.5q56 0 90.5 -0.5t67.5 -2.5v-198h-72q-76 0 -99.5 -27.5t-23.5 -142.5v-268h195v-160h-195v-586q0 -210 -74.5 -285t-291.5 -75q-42 0 -64 0.5t-41 1.5z" />
    <glyph glyph-name="circumflex" unicode="&#x2c6;" horiz-adv-x="1024" 
d="M422 1251h-162l154 224h196l154 -224h-162l-90 111z" />
    <glyph glyph-name="caron" unicode="&#x2c7;" horiz-adv-x="1024" 
d="M602 1475h162l-154 -224h-196l-154 224h162l90 -111z" />
    <glyph glyph-name="breve" unicode="&#x2d8;" horiz-adv-x="1024" 
d="M428 1475q0 -53 20 -77t64 -24t64 24t20 77h131v-13q0 -106 -54.5 -160.5t-160.5 -54.5t-160.5 54.5t-54.5 160.5v13h131z" />
    <glyph glyph-name="dotaccent" unicode="&#x2d9;" horiz-adv-x="1024" 
d="M416 1260v206h192v-206h-192z" />
    <glyph glyph-name="ring" unicode="&#x2da;" horiz-adv-x="1024" 
d="M334 1430q0 73 52 125.5t126 52.5t126 -52.5t52 -125.5q0 -75 -52 -127t-126 -52q-75 0 -126.5 51.5t-51.5 127.5zM444 1430q0 -28 20 -47t48 -19q29 0 48.5 19t19.5 47q0 29 -19.5 48t-48.5 19q-28 0 -48 -20t-20 -47z" />
    <glyph glyph-name="ogonek" unicode="&#x2db;" horiz-adv-x="1024" 
d="M629 0q-37 -52 -52.5 -89.5t-15.5 -72.5q0 -28 11 -55t32 -49h-180q-12 24 -17.5 42t-5.5 34q0 49 24 90.5t89 99.5h115z" />
    <glyph glyph-name="tilde" unicode="&#x2dc;" horiz-adv-x="1024" 
d="M766 1464v-16q0 -87 -42.5 -136.5t-115.5 -49.5q-45 0 -107.5 31.5t-84.5 31.5q-24 0 -37.5 -15t-13.5 -40v-8h-107v16q0 86 42.5 136t115.5 50q45 0 107.5 -31.5t84.5 -31.5q24 0 37.5 15t13.5 40v8h107z" />
    <glyph glyph-name="hungarumlaut" unicode="&#x2dd;" horiz-adv-x="1024" 
d="M700 1251h-133l80 224h209zM438 1251h-135l82 224h207z" />
    <glyph glyph-name="Omega" unicode="&#x3a9;" horiz-adv-x="1575" 
d="M1227 256h291v-256h-609v291q126 86 192 217.5t66 296.5q0 203 -101.5 319.5t-279.5 116.5q-177 0 -278.5 -116.5t-101.5 -319.5q0 -164 66 -296.5t192 -217.5v-291h-609v256h291q-126 121 -187 260t-61 303q0 313 188 501.5t500 188.5q313 0 501 -188.5t188 -501.5
q0 -164 -61 -303t-187 -260z" />
    <glyph glyph-name="pi" unicode="&#x3c0;" horiz-adv-x="1319" 
d="M1354 1092l-39 -224h-176l-154 -868h-287l152 868h-238l-151 -868h-287l152 868h-25q-55 0 -84 -31t-39 -99l-213 -1q30 200 123 277.5t311 77.5h955z" />
    <glyph glyph-name="endash" unicode="&#x2013;" horiz-adv-x="1024" 
d="M0 500v180h1024v-180h-1024z" />
    <glyph glyph-name="emdash" unicode="&#x2014;" horiz-adv-x="2048" 
d="M0 500v180h2048v-180h-2048z" />
    <glyph glyph-name="quoteleft" unicode="&#x2018;" horiz-adv-x="389" 
d="M340 950h-174l-137 525h245z" />
    <glyph glyph-name="quoteright" unicode="&#x2019;" horiz-adv-x="389" 
d="M49 950l66 525h245l-137 -525h-174z" />
    <glyph glyph-name="quotesinglbase" unicode="&#x201a;" horiz-adv-x="389" 
d="M43 -219l66 524h245l-137 -524h-174z" />
    <glyph glyph-name="quotedblleft" unicode="&#x201c;" horiz-adv-x="702" 
d="M653 950h-174l-137 525h246zM340 950h-174l-139 525h245z" />
    <glyph glyph-name="quotedblright" unicode="&#x201d;" horiz-adv-x="702" 
d="M47 950l68 525h243l-137 -525h-174zM362 950l66 525h246l-137 -525h-175z" />
    <glyph glyph-name="quotedblbase" unicode="&#x201e;" horiz-adv-x="702" 
d="M43 -219l66 524h245l-137 -524h-174zM356 -219l66 524h246l-138 -524h-174z" />
    <glyph glyph-name="dagger" unicode="&#x2020;" horiz-adv-x="807" 
d="M401 -150l-104 99v969h-285v194h285v363h213v-363h283v-194h-283v-969z" />
    <glyph glyph-name="daggerdbl" unicode="&#x2021;" horiz-adv-x="807" 
d="M510 766l-109 -98l-104 98v152h-285v194h285v363h213v-363h283v-194h-283v-152zM297 571l106 97l105 -97v-151h285v-195h-285v-362h-211v362h-285v195h285v151z" />
    <glyph glyph-name="bullet" unicode="&#x2022;" horiz-adv-x="1208" 
d="M307 762q0 123 87 209t210 86q122 0 208.5 -86.5t86.5 -208.5t-87.5 -209.5t-209.5 -87.5q-123 0 -209 87t-86 210z" />
    <glyph glyph-name="ellipsis" unicode="&#x2026;" horiz-adv-x="2048" 
d="M206 0v301h271v-301h-271zM888 0v301h271v-301h-271zM1572 0v301h271v-301h-271z" />
    <glyph glyph-name="perthousand" unicode="&#x2030;" horiz-adv-x="1632" 
d="M901 172v406q0 36 -9.5 51.5t-31.5 15.5q-21 0 -31 -15.5t-10 -51.5v-406q0 -36 10 -52t31 -16q22 0 31.5 16t9.5 52zM643 528q0 135 51.5 194.5t165.5 59.5t165.5 -59.5t51.5 -194.5v-305q0 -135 -51.5 -195.5t-165.5 -60.5q-113 0 -165 60.5t-52 195.5v305zM49 1249
q0 136 52 196t165 60q114 0 165.5 -60t51.5 -196v-305q0 -135 -51.5 -195.5t-165.5 -60.5q-113 0 -165 60.5t-52 195.5v305zM307 895v403q0 37 -9.5 52.5t-31.5 15.5q-21 0 -31 -15.5t-10 -52.5v-403q0 -36 10 -52t31 -16q22 0 31.5 16t9.5 52zM1151 528q0 135 51.5 194.5
t165.5 59.5t165.5 -59.5t51.5 -194.5v-305q0 -135 -51.5 -195.5t-165.5 -60.5t-165.5 60.5t-51.5 195.5v305zM1409 172v406q0 36 -9.5 51.5t-31.5 15.5q-21 0 -30 -15t-9 -52v-406q0 -37 9 -52.5t30 -15.5q22 0 31.5 16t9.5 52zM774 1507h117l-541 -1540h-117z" />
    <glyph glyph-name="guilsinglleft" unicode="&#x2039;" horiz-adv-x="389" 
d="M342 123l-295 328v262l295 329v-262l-182 -198l182 -199v-260z" />
    <glyph glyph-name="guilsinglright" unicode="&#x203a;" horiz-adv-x="389" 
d="M47 1040l295 -327v-262l-295 -328v260l180 199l-180 198v260z" />
    <glyph glyph-name="franc" unicode="&#x20a3;" horiz-adv-x="1305" 
d="M51 0v1475h549v-205h-254v-340h248v-213h-248v-717h-295zM670 0v1180h256v-99h4q33 62 79 91.5t107 29.5q85 0 127.5 -50.5t42.5 -150.5v-456h-262v370q0 41 -10.5 55.5t-36.5 14.5q-24 0 -35.5 -17t-11.5 -53v-915h-260z" />
    <glyph glyph-name="trademark" unicode="&#x2122;" horiz-adv-x="1706" 
d="M803 1462h196l127 -332l123 332h197v-547h-135v410l-154 -410h-61l-158 410v-410h-135v547zM207 1462h485v-112h-168v-435h-149v435h-168v112z" />
    <glyph glyph-name="partialdiff" unicode="&#x2202;" horiz-adv-x="1094" 
d="M762 662q19 99 29 188.5t10 155.5q0 100 -26 157.5t-70 57.5t-146 -73t-160 -73q-42 0 -71 30t-29 73q0 64 86.5 118t210.5 54q192 0 309 -161.5t117 -432.5q0 -339 -156.5 -560t-396.5 -221q-171 0 -282 114.5t-111 291.5q0 198 116 329.5t287 131.5q102 0 170 -43.5
t113 -136.5zM700 518q0 116 -38.5 178t-110.5 62q-101 0 -167.5 -134t-66.5 -341q0 -117 38.5 -177.5t111.5 -60.5q101 0 167 133.5t66 339.5z" />
    <glyph glyph-name="Delta" unicode="&#x2206;" horiz-adv-x="1427" 
d="M713 1110l-326 -854h653zM563 1473h301l563 -1473h-1427z" />
    <glyph glyph-name="product" unicode="&#x220f;" horiz-adv-x="1612" 
d="M150 1473h1308v-1866h-344v1577h-620v-1577h-344v1866z" />
    <glyph glyph-name="summation" unicode="&#x2211;" horiz-adv-x="1470" 
d="M66 1473h1308v-265h-878l620 -645l-622 -690h933v-266h-1386v172l698 772l-673 690v232z" />
    <glyph glyph-name="minus" unicode="&#x2212;" horiz-adv-x="1706" 
d="M254 713h1198v-203h-1198v203z" />
    <glyph glyph-name="fraction" unicode="&#x2215;" horiz-adv-x="258" 
d="M-143 -33h-117l661 1540h117z" />
    <glyph glyph-name="periodcentered" unicode="&#x2219;" horiz-adv-x="389" 
d="M195 895q65 0 111 -46.5t46 -111.5q0 -66 -46 -112.5t-111 -46.5q-66 0 -113 46.5t-47 112.5t46.5 112t113.5 46z" />
    <glyph glyph-name="radical" unicode="&#x221a;" horiz-adv-x="1346" 
d="M1141 1694h207v-129h-103l-592 -1606h-100l-311 858l-140 -51l-30 113l331 116l236 -661z" />
    <glyph glyph-name="infinity" unicode="&#x221e;" horiz-adv-x="1706" 
d="M942 561q45 -75 106.5 -113t139.5 -38q94 0 152.5 55.5t58.5 144.5q0 86 -54 142.5t-135 56.5q-74 0 -136 -57t-132 -191zM766 659q-46 76 -107 113t-139 37q-93 0 -152 -56.5t-59 -144.5q0 -85 54 -141.5t135 -56.5q75 0 138 58t130 191zM858 457q-69 -133 -147 -195.5
t-174 -62.5q-139 0 -235.5 117.5t-96.5 293.5q0 184 85.5 297t223.5 113q93 0 169.5 -58.5t164.5 -199.5q68 132 148 196t175 64q139 0 235.5 -118t96.5 -294q0 -183 -86 -296t-223 -113q-93 0 -168.5 56.5t-167.5 199.5z" />
    <glyph glyph-name="integral" unicode="&#x222b;" horiz-adv-x="1186" 
d="M342 -252q102 0 121 639q3 136 6 211q16 508 123 732t328 224q98 0 157.5 -49t59.5 -129q0 -60 -38 -96.5t-100 -36.5q-46 0 -77 24t-41 68q-5 20 -7 54q-3 46 -30 47q-99 0 -119 -633q-4 -116 -6 -178q-11 -296 -31 -444.5t-59 -250.5q-56 -148 -148.5 -225.5
t-214.5 -77.5q-96 0 -156.5 49t-60.5 127q0 62 39 99t105 37q50 0 85 -31.5t35 -71.5q0 -58 6 -73t23 -15z" />
    <glyph glyph-name="approxequal" unicode="&#x2248;" horiz-adv-x="1706" 
d="M1530 596v-219q-106 -72 -198 -105.5t-181 -33.5q-95 0 -286.5 66.5t-301.5 66.5q-84 0 -174.5 -37t-210.5 -121v219q111 73 206.5 108t180.5 35q124 0 315.5 -65.5t274.5 -65.5q86 0 174 35.5t201 116.5zM1530 1008v-220q-106 -71 -196.5 -104t-180.5 -33
q-94 0 -286 65.5t-304 65.5q-82 0 -170 -35t-215 -122v219q107 71 204 107t183 36q125 0 316.5 -65.5t273.5 -65.5q84 0 171 35t204 117z" />
    <glyph glyph-name="notequal" unicode="&#x2260;" horiz-adv-x="1706" 
d="M1198 1233l148 -119l-154 -192h260v-191h-389l-191 -239h580v-193h-707l-245 -309l-148 119l154 190h-252v193h377l190 239h-567v191h696z" />
    <glyph glyph-name="lessequal" unicode="&#x2264;" horiz-adv-x="1706" 
d="M258 195h1192v-197h-1192v197zM1448 1241v-209l-834 -264l834 -262v-209l-1190 385v174z" />
    <glyph glyph-name="greaterequal" unicode="&#x2265;" horiz-adv-x="1706" 
d="M258 195h1192v-197h-1192v197zM260 1241l1188 -385v-174l-1188 -385v209l832 262l-832 264v209z" />
    <glyph glyph-name="lozenge" unicode="&#x25ca;" horiz-adv-x="1012" 
d="M506 1409l-385 -817l385 -825l385 825zM506 1653l500 -1061l-500 -1069l-500 1069z" />
    <glyph glyph-name="apple" unicode="&#xf000;" horiz-adv-x="1618" 
d="M836 1216q-1 6 -1.5 14t-0.5 23q0 124 95 229.5t236 131.5q1 -10 1.5 -23t0.5 -39q0 -131 -103.5 -234.5t-203.5 -103.5h-8q-3 0 -7.5 1t-8.5 1zM1505 403q-114 -247 -205 -342.5t-204 -95.5q-50 0 -131.5 33t-122.5 33q-45 0 -131 -33t-127 -33q-64 0 -128.5 44
t-129.5 132q-102 140 -157.5 295.5t-55.5 300.5q0 219 125 356.5t323 137.5q68 0 155 -34t124 -34q34 0 121.5 35t152.5 35q110 0 198 -40t161 -124q-102 -65 -151.5 -145.5t-49.5 -182.5q0 -113 60 -200t173 -138z" />
    <glyph glyph-name="fi" unicode="&#xf001;" horiz-adv-x="764" 
d="M461 0v1180h262v-1180h-262zM461 1251v224h262v-224h-262zM84 0v993h-64v187h64v112q0 87 51.5 135t145.5 48h147v-185q-46 0 -65 -10.5t-19 -36.5v-63h84v-187h-84v-993h-260z" />
    <glyph glyph-name="fl" unicode="&#xf002;" horiz-adv-x="764" 
d="M723 0h-262v1475h262v-1475zM84 0v993h-64v187h64v112q0 87 51.5 135t145.5 48h147v-185q-46 0 -65 -10.5t-19 -36.5v-63h84v-187h-84v-993h-260z" />
    </font>
</defs>
</svg>
